Торрент файл
скачать торрент магнет ссылка Добавлен: 01 апр 2012, 15:53
Размер: 1.83 ГБ
Сидеров: 71
Личеров: 4
Автор

СообщениеДобавлено: 01 апр 2012, 15:53 

Не в сети
Супермодератор
Аватара пользователя
Дата регистрации:
11 апр 2010, 18:10
Спасибо: 5801 / 7
Сообщения: 56779
Плохая компания / Bad Company

Перевод: Профессиональный (полное дублирование)
Cубтитры: Oтсутствуют

Формат: DVDRip-AVC, MKV, H.264, AC3
Страна: США, Чехия
Режиссер: Джоэл Шумахер

Жанр: Боевик, триллер, комедия
Продолжительность: 01:51:51
Год выпуска: 2001

В ролях: Энтони Хопкинс, Крис Рок, Керри Вашигтон, Брук Смит, Гарселл Бьювайс, Ших Уигхэм, Майкл Или, Петер Стормаре, Гэбриел Махт, Адони Маропис, Гарсель Бове, Драган Мичанович, Джон Слэттери, Брук Смит, Дэниэл Санжата, ДеВоун Лоусон мл., Марек Вашут, Питер Макдисси, Ирма П. Холл, Петр Якл, Дэн Зиски, Джон Эйлуорд, Джон Финк, Дебора Раш, Ян Немейовски, Винтер Б. Уларик, Майкл Или, Джанет Рэкуэл

Описание: Когда во время очередного задания погибает агент ЦРУ, агентство решает заменить его братом-близнецом и закончить сверхсекретную операцию, над которой работал погибший.
Однако замену трудно назвать адекватной.
На место опытного агента, выпускника Гарварда, пришлось поставить ничего не подозревающего уличного прощелыгу.

Чтобы окончательно не провалить дело, руководство приставляет к новобранцу одного из своих лучших агентов.
Сладкая парочка приступает к теперь уже вдвойне рискованной операции…




Видео: 720x304 (2.35:1), 25.000 fps, AVC (x264) High@L3.1, ~1 945 Kbps, 0.355 bit/pixel
Аудио: 48.0 KHz, AC3, 6 ch (Front: L C R, Side: L R, LFE), ~384 Kbps

Трейлер

General
Unique ID: 214540969426210877062561944758263138344 (0xA167167593AD7EE0B26608925A02C82
Complete name: C:\Users\\Documents\Downloads\bad_company_[tfile.ru].mkv
Format: Matroska
Format version: Version 2
File size: 1.83 GiB
Duration: 1h 51mn
Overall bit rate: 2 336 Kbps
Encoded date: UTC 2011-03-04 15:26:17
Writing application: mkvmerge v4.0.0 ('The Stars were mine') сборка от Jun6 2010 16:18:42
Writing library: libebml v1.0.0 + libmatroska v1.0.0

Video
ID: 1
Format: AVC
Format/Info: Advanced Video Codec
Format profile: High@L3.1
Format settings, CABAC: Yes
Format settings, ReFrames: 2 frames
Codec ID: V_MPEG4/ISO/AVC
Duration: 1h 51mn
Bit rate: 1 945 Kbps
Width: 720 pixels
Height: 304 pixels
Display aspect ratio: 2.35:1
Frame rate: 25.000 fps
Color space: YUV
Chroma subsampling: 4:2:0
Bit depth: 8 bits
Scan type: Progressive
Bits/(Pixel*Frame): 0.355
Stream size: 1.49 GiB (82%)
Writing library: x264 core 1679598476May4 2010
Encoding settings: cabac=1 / ref=1 / deblock=0:0:0 / analyse=0x3:0x113 / me=hex / subme=5 / psy=1 / psy_rd=0.0:0.0 / mixed_ref=0 / me_range=16 / chroma_me=1 / trellis=0 / 8x8dct=1 / cqm=0 / deadzone=21,11 / chroma_qp_offset=0 / threads=1 / nr=0 / decimate=1 / mbaff=0 / bframes=3 / b_pyramid=0 / b_adapt=1 / b_bias=0 / direct=1 / wpredb=1 / keyint=250 / keyint_min=1 / scenecut=40 / rc_lookahead=40 / rc=abr / mbtree=1 / bitrate=1945 / ratetol=1.0 / qcomp=0.50 / qpmin=2 / qpmax=31 / qpstep=4 / ip_ratio=1.40 / aq=1:0.30
Language: English

Audio
ID: 2
Format: AC-3
Format/Info: Audio Coding 3
Mode extension: CM (complete main)
Codec ID: A_AC3
Duration: 1h 51mn
Bit rate mode: Constant
Bit rate: 384 Kbps
Channel(s): 6 channels
Channel positions: Front: L C R, Side: L R, LFE
Sampling rate: 48.0 KHz
Bit depth: 16 bits
Compression mode: Lossy
Stream size: 307 MiB (16%)
Language: Russian



















Поделиться:




реклама партнёра


Вернуться к началу
 Профиль Отправить личное сообщение  
 
   Похожие торренты   Автор   Торрент   Размер 
В этой теме нет новых непрочитанных сообщений. Крутая компания / In Good Company [Комедия, мелодрама, драма, 2004] BDRip 1080р, Mvo

salma3

1 | 2

9.54 ГБ

В этой теме нет новых непрочитанных сообщений. Компания негодяев / Badmaash Company [Криминал, драма, комедия, 2010] BDRip 1080p, Mvo+Sub

salma3

17 | 2

7.31 ГБ

В этой теме нет новых непрочитанных сообщений. Гольциус и Пеликанья компания / Goltzius and the Pelican Company [биография, история, 2012] DVDRip, Mvo [Лицензия]

Dracon

665 | 40

2.05 ГБ

В этой теме нет новых непрочитанных сообщений. Гольциус и Пеликанья компания / Goltzius and the Pelican Company (Питер Гринуэй / Peter Greenaway) [2012г., биография, история, WEBRip] MVO

Alfredovich

768 | 53

1.45 ГБ

В этой теме нет новых непрочитанных сообщений. Дело фирмы / Company Business [триллер, драма, боевик, 1990] DVDRip, Mvo

salma3

20 | 3

1.46 ГБ

В этой теме нет новых непрочитанных сообщений. Самрат и Компания / Samrat & Co. [Триллер, детектив, 2014] DVDRip, Dvo+Sub

salma3

12 | 4

1.45 ГБ

В этой теме нет новых непрочитанных сообщений. Спецагент / The Company Man [Боевик, 1998] DVDRip, Mvo

salma3

3 | 4

1.47 ГБ


Начать новую тему Ответить на тему  [ 1 сообщение ] 




Для Мосгорсуда, Роскомнадзора и рекламодателей:: mosgorsud-torrent[собачка]yandex.ru