Торрент файл
скачать торрент магнет ссылка Добавлен: 01 апр 2012, 15:53
Размер: 1.49 ГБ
Сидеров: 88
Личеров: 10
Автор

СообщениеДобавлено: 01 апр 2012, 15:53 

Не в сети
Супермодератор
Аватара пользователя
Дата регистрации:
11 апр 2010, 18:10
Спасибо: 5798 / 7
Сообщения: 56779
Кикбоксер / Kickboxer

Перевод: Профессиональный (Двухголосый), cубтитры: отсутствуют
Формат: HDRip-AVC, MKV, H.264, AC3
Страна: США
Режиссер: Марк ДиСалле, Дэвид Уорт
Жанр: боевик, спорт
Продолжительность: 01:37:30
Год выпуска: 1989
В ролях: Жан-Клод Ван Дамм, Деннис Алексио, Деннис Чан, Мишель Кисси, Хэскелл В. Андерсон III, Рошель Ашана, Стив Ли, Ричард Фу, Рикки Лю, Син Хо Йинг
Описание: Братья Курт и Эрик Слоан отправляются в Таиланд, на родину кикбоксинга, чтобы доказать местным бойцам превосходство американской школы над тайской. Эрик, чемпион Америки по кикбоксингу, встречается в бою с Тонг По, чемпионом Таиланда.
Тонг По оказывается сущим зверем. Он намеренно калечит уже обессилевшего Эрика Слоана, обрекая его на инвалидность. Курт поступает в обучение к мастеру тайской борьбы Зену, чтобы победить Тонг По и отомстить за парализованного брата.


Видео: 960х520 (16:9), 23,976 fps, AVC (х264), High@L4.1, ~ 1800 Kbps, 0.150 bit/pixel
Аудио: 48 kHz, AC3 Dolby Digital, 3/2 (L,C,R,l,r) + LFE ch, ~384 kbps avg
Релиз группы
Релиз от

Общее:
Уникальный идентификатор: 61090561085184774747411961368582152296 (0x2DF59D3517034C0C444A3CD62411E06
Полное имя: D:\Мои рипы\kikbokser_[tfile.ru].mkv
Формат: Matroska
Версия формата: Version 2
Размер файла: 1,49 Гбайт
Продолжительность: 1 ч. 37 м.
Общий поток: 2186 Кбит/сек
Программа кодирования: XviD4PSP 6.0 / 53.6.0
Библиотека кодирования: XviD4PSP 6.0 / 53.6.0

Видео:
Идентификатор: 1
Формат: AVC
Формат/Информация: Advanced Video Codec
Профиль формата: High@L4.1
Параметр CABAC формата: Да
Параметр ReFrames формата: 8 кадров
Идентификатор кодека: V_MPEG4/ISO/AVC
Продолжительность: 1 ч. 37 м.
Битрейт: 1800 Кбит/сек
Ширина: 960 пикс.
Высота: 520 пикс.
Соотношение сторон: 16:9
Соотношение сторон в оригинале: 16:9
Режим частоты кадров: Переменный
Частота кадров: 23,976 кадр/сек
Цветовое пространство: YUV
Подвыборка цветности: 4:2:0
Битовая глубина: 8 бит
Тип развёртки: Прогрессивная
Бит/(Пиксели*Кадры): 0.150
Размер потока: 1,20 Гбайт (80%)
Библиотека кодирования: x264 core 116 r2019M 9cc407d
Настройки программы: cabac=1 / ref=9 / deblock=1:-2:-2 / analyse=0x3:0x133 / me=umh / subme=9 / psy=1 / psy_rd=1.00:0.20 / mixed_ref=1 / me_range=32 / chroma_me=1 / trellis=1 / 8x8dct=1 / cqm=0 / deadzone=21,11 / fast_pskip=1 / chroma_qp_offset=-3 / threads=6 / sliced_threads=0 / nr=0 / decimate=1 / interlaced=0 / bluray_compat=0 / constrained_intra=0 / bframes=9 / b_pyramid=1 / b_adapt=2 / b_bias=0 / direct=3 / weightb=1 / open_gop=0 / weightp=2 / keyint=230 / keyint_min=23 / scenecut=40 / intra_refresh=0 / rc_lookahead=60 / rc=2pass / mbtree=1 / bitrate=1800 / ratetol=1.0 / qcomp=0.60 / qpmin=0 / qpmax=69 / qpstep=4 / cplxblur=20.0 / qblur=0.5 / ip_ratio=1.40 / aq=1:1.00
Язык: English

Аудио:
Идентификатор: 2
Формат: AC-3
Формат/Информация: Audio Coding 3
Расширение режима: CM (complete main)
Идентификатор кодека: A_AC3
Продолжительность: 1 ч. 37 м.
Вид битрейта: Постоянный
Битрейт: 384 Кбит/сек
Каналы: 6 каналов
Расположение каналов: Front: L C R, Side: L R, LFE
Частота: 48,0 КГц
Битовая глубина: 16 бит
Метод сжатия: С потерями
Размер потока: 268 Мбайт (18%)
Заголовок: AC3 5.1 384 Многоголосный закадровый
Язык: Russian

[b]







[b]Поделиться:




реклама партнёра


Вернуться к началу
 Профиль Отправить личное сообщение  
 
   Похожие торренты   Автор   Торрент   Размер 
В этой теме нет новых непрочитанных сообщений. Кикбоксер / Kickboxer [боевик, драма, спорт, 1989] BDRip 1080p, Mvo+Dvo+Avo+Sub

salma3

45 | 3

7.76 ГБ

В этой теме нет новых непрочитанных сообщений. Кикбоксёр / Kickboxer [Боевик, триллер, спорт, 1989] BDRip 720p, Mvo+Dvo+2Avo+Sub

salma3

11 | 4

8.24 ГБ

В этой теме нет новых непрочитанных сообщений. Недооформлен Кикбоксер / Kickboxer ( боевик, 2016) HDRip | L Данный торрент является блокированным, причина: недооформленный торрент

marya111

0 | 0

1.37 ГБ

В этой теме нет новых непрочитанных сообщений. Недооформлен Кикбоксер / Kickboxer (Боевик, 2016) HDRip от MegaPeer | L Данный торрент является блокированным, причина: недооформленный торрент

marya111

0 | 0

746.67 МБ

В этой теме нет новых непрочитанных сообщений. Кикбоксер / Kickboxer [боевик, 2016] WEBRip, Mvo

salma3

3434 | 102

1.37 ГБ

В этой теме нет новых непрочитанных сообщений. Кикбоксер / Kickboxer [боевик, 2016] WEB-DLRip-AVC, Mvo

salma3

170 | 5

2.79 ГБ

В этой теме нет новых непрочитанных сообщений. Кикбоксер / Kickboxer [боевик, 2016] WEB-DL 1080p, Mvo

salma3

626 | 35

2.94 ГБ


Начать новую тему Ответить на тему  [ 1 сообщение ] 




Для Мосгорсуда, Роскомнадзора и рекламодателей:: mosgorsud-torrent[собачка]yandex.ru