Торрент файл
скачать торрент магнет ссылка Добавлен: 01 апр 2012, 15:53
Размер: 2.28 ГБ
Сидеров: 225
Личеров: 9
Автор

СообщениеДобавлено: 01 апр 2012, 15:53 

Не в сети
Супермодератор
Аватара пользователя
Дата регистрации:
11 апр 2010, 18:10
Спасибо: 5801 / 7
Сообщения: 56779
[b]22 пули: Бессмертный / L'immortel[/b]


Слоган: Le sang versé ne sèche jamais

Перевод: Профессиональный (полное дублирование) [лицензия]
Cубтитры: отсутствуют
Формат: HDRip-AVC, MKV, H.264, АС3
Страна: Франция
Режиссер: Ришар Берри
Жанр: боевик, драма, криминал
Продолжительность: 01:57:00
Год выпуска: 2010

В ролях: Жан Рено, Габриэлла Райт, Кад Мерад, Ришар Берри, Марина Фоис, Жан-Пьер Дарруссен, Клод Жансак, Доминик Томас, Фани Коларова, Венантино Венантини

Описание: Шарль Матей — один из крестных отцов Марселя. Он решает отойти от дел и жить на покое, ведь ему немало лет, а за спиной слишком бурная жизнь. Но компаньоны против такого поворота событий. На него совершают жестокое покушение, не оставляя ему ни одного шанса.

Расстрелянного коллегами в упор, Шарля доставляют в больницу и извлекают из его тела 22 пули… Но каким-то чудом он остается жив. Теперь он жаждет отомстить своим некогда друзьям. И его месть будет не менее кровава и безжалостна.




Видео: 1280x546 (2,35:1), 24,000 fps, AVC (х264) High@L4.1, ~ 2420 Kbps, 0.144 bit/pixel
Аудио: 48 kHz, AC3 Dolby Digital, 3/2 (L,C,R,l,r) + LFE ch, ~384 kbps avg

Общее
Уникальный идентификатор: 196945832447108173233976106752304044035 (0x942A633A9EA4E4649456FC393A155803)
Полное имя: 22_puli_bessmertnyj_[tfile.ru].mkv
Формат: Matroska
Версия формата: Version 2
Размер файла: 2,28 Гбайт
Продолжительность: 1 ч. 57 м.
Режим общего битрейта: Переменный
Общий поток: 2790 Кбит/сек
Название фильма: Rip by NigAndr (NOLIMITS-TEAM.RU)
Дата кодирования: UTC 2010-09-21 22:36:35
Программа кодирования: mkvmerge v3.0.0 ('Hang up your Hang-Ups') built on Dec 12 2009 15:20:35
Библиотека кодирования: libebml v0.7.9 + libmatroska v0.8.1

Видео
Идентификатор: 1
Формат: AVC
Формат/Информация: Advanced Video Codec
Профиль формата: High@L4.1
Параметр CABAC формата: Да
Параметр ReFrames формата: 3 кадра
Идентификатор кодека: V_MPEG4/ISO/AVC
Продолжительность: 1 ч. 57 м.
Вид битрейта: Переменный
Битрейт: 2420 Кбит/сек
Максимальный битрейт: 17,5 Мбит/сек
Ширина: 1280 пикселей
Высота: 546 пикселей
Соотношение сторон: 2,35:1
Соотношение сторон в оригинале: 2,35:1
Частота кадров: 24,000 кадра/сек
Цветовое пространство: YUV
Субдискретизация насыщенности: 4:2:0
Битовая глубина: 8 бит
Тип развёртки: Прогрессивная
Бит/(Пиксели*Кадры): 0.144
Размер потока: 1,92 Гбайт (84%)
Заголовок: 22 пули. Бессмертный.(2010).[NoLimits-Team.ru]
Библиотека кодирования: x264 core 104 r1713 c276662
Настройки программы: cabac=1 / ref=3 / deblock=1:0:0 / analyse=0x3:0x113 / me=hex / subme=7 / psy=1 / psy_rd=1.00:0.00 / mixed_ref=1 / me_range=16 / chroma_me=1 / trellis=1 / 8x8dct=1 / cqm=0 / deadzone=21,11 / fast_pskip=1 / chroma_qp_offset=-2 / threads=6 / sliced_threads=0 / slices=4 / nr=0 / decimate=1 / interlaced=0 / constrained_intra=0 / bframes=3 / b_pyramid=1 / b_adapt=1 / b_bias=0 / direct=1 / weightb=1 / open_gop=0 / weightp=0 / keyint=24 / keyint_min=1 / scenecut=40 / intra_refresh=0 / rc_lookahead=24 / rc=abr / mbtree=1 / bitrate=2420 / ratetol=1.0 / qcomp=0.60 / qpmin=0 / qpmax=51 / qpstep=4 / vbv_maxrate=17500 / vbv_bufsize=14500 / ip_ratio=1.10 / aq=1:1.00 / nal_hrd=vbr
Язык: English

Аудио
Идентификатор: 2
Формат: AC-3
Формат/Информация: Audio Coding 3
Расширение режима: CM (complete main)
Идентификатор кодека: A_AC3
Продолжительность: 1 ч. 57 м.
Вид битрейта: Постоянный
Битрейт: 384 Кбит/сек
Каналы: 6 каналов
Расположение каналов: Front: L C R, Side: L R, LFE
Частота: 48,0 КГц
Битовая глубина: 16 бит
Метод сжатия: С потерями
Размер потока: 321 Мбайт (14%)
Заголовок: Дубляж, R5 [AC3 5.1 384 kbps]
Язык: Russian
















Поделиться:




реклама партнёра


Вернуться к началу
 Профиль Отправить личное сообщение  
 
   Похожие торренты   Автор   Торрент   Размер 
В этой теме нет новых непрочитанных сообщений. Быстрее пули / Faster [боевик, триллер, драма, криминал, 2010 ] HDRip, Avo [Гаврилов]

salma3

2 | 3

1.45 ГБ

В этой теме нет новых непрочитанных сообщений. Черный ящик / La Boîte noire (Ришар Берри / Richard Berry) [2005г., Франция, триллер, детектив, мистика, HDTV 1080i] MVO

Alfredovich

16 | 7

3.8 ГБ

В этой теме нет новых непрочитанных сообщений. Росомаха: Бессмертный / The Wolverine [Фантастика, Боевик, Триллер, Приключения, 2013] HDRip, Avo [Дольский]

salma3

55 | 12

1.47 ГБ

В этой теме нет новых непрочитанных сообщений. Фронтера / Frontera (Майкл Берри) [Драма, 2014] HDRip, Mvo

Dracon

51 | 2

1.37 ГБ

В этой теме нет новых непрочитанных сообщений. Пули над Бродвеем / Bullets Over Broadway [драма, комедия, криминал, 1994] BDRip 1080p, Mvo+Avo+Sub

salma3

43 | 5

7.95 ГБ

В этой теме нет новых непрочитанных сообщений. Политики / Raajneeti [боевик, триллер, драма, криминал, 2010] HDRip, Mvo+Sub

salma3

5 | 4

2.92 ГБ

В этой теме нет новых непрочитанных сообщений. Политики / Raajneeti [боевик, триллер, драма, криминал, 2010] HDRip, Mvo [КПК]

salma3

3 | 2

511.74 МБ


Начать новую тему Ответить на тему  [ 1 сообщение ] 




Для Мосгорсуда, Роскомнадзора и рекламодателей:: mosgorsud-torrent[собачка]yandex.ru