Торрент файл
скачать торрент магнет ссылка Добавлен: 01 апр 2012, 15:51
Размер: 1.45 ГБ
Сидеров: 102
Личеров: 10
Автор

СообщениеДобавлено: 01 апр 2012, 15:51 

Не в сети
Супермодератор
Аватара пользователя
Дата регистрации:
11 апр 2010, 18:10
Спасибо: 5803 / 7
Сообщения: 56779
Долгий поцелуй на ночь / The Long Kiss Goodnight


Перевод: Профессиональный (многоголосый, закадровый), cубтитры: отсутствуют
Формат: HDRip-AVC, MKV, H.264, AC3
Страна: США
Режиссер: Ренни Харлин
Жанр: боевик, триллер, драма, криминал, детектив
Продолжительность: 02:00:33
Год выпуска: 1996

В ролях: Джина Дэвис, Сэмюэл Л. Джексон, Ивонн Зима, Крэйг Бирко, Том Амандес, Брайан Кокс, Патрик Мэлахайд, Дэвид Морс, Джозеф МакКенна, Мелина Канакаредес

Описание: 8 лет назад школьная учительница Саманта Кейн перенесла полную потерю памяти. Она живет с 8-летней дочкой счастливой семейной жизнью и не подозревает о своем кровавом прошлом, ведь когда-то эта красивая женщина была агентом Чарли Бэлтимор, выполнявшим секретные заказы ЦРУ.
Шокированная неожиданным возвращением некоторых навыков и психологической подготовки профессионального киллера, Саманта пытается разобраться в своем прошлом. Детектив Митч Хенесси, начавший с расследования жизни простой учительницы, оказывается втянутым вместе с Самантой в секретную операцию ЦРУ.




Видео: 960 x 400 (2.40.1), 23.976 fps, AVC, х264 High@L4.1, ~ 1342 Kbps, 0.146 bit/pixel
Аудио: 48 kHz, AC3 Dolby Digital, 3/2 (L,C,R,l,r) + LFE ch, ~384 kbps


Рип: jeenart

General
Unique ID: 239825422317038337930448125637715316994 (0xB46CB23BE78C5379B466D40582AC5102)
Complete name: F:\Мои релизы\Все релизы 10\dolgij_pocelyi_na_noch_[tfile.ru].mkv
Format: Matroska
File size: 1.45 GiB
Duration: 2h 0mn
Overall bit rate: 1 727 Kbps
Encoded date: UTC 2012-02-06 10:29:21
Writing application: mkvmerge v4.6.0 ('Still Crazy After All These Years') сборка от Apr1 2011 21:01:49
Writing library: libebml v1.2.0 + libmatroska v1.1.0

Video
ID: 1
Format: AVC
Format/Info: Advanced Video Codec
Format profile: High@L4.1
Format settings, CABAC: Yes
Format settings, ReFrames: 4 frames
Codec ID: V_MPEG4/ISO/AVC
Duration: 2h 0mn
Bit rate: 1 342 Kbps
Width: 960 pixels
Height: 400 pixels
Display aspect ratio: 2.40:1
Frame rate: 23.976 fps
Color space: YUV
Chroma subsampling: 4:2:0
Bit depth: 8 bits
Scan type: Progressive
Bits/(Pixel*Frame): 0.146
Stream size: 1.10 GiB (76%)
Writing library: x264 core 115 r1937 aa21558
Encoding settings: cabac=1 / ref=3 / deblock=1:-1:-1 / analyse=0x3:0x113 / me=hex / subme=7 / psy=1 / psy_rd=1.00:0.10 / mixed_ref=1 / me_range=16 / chroma_me=1 / trellis=1 / 8x8dct=1 / cqm=0 / deadzone=21,11 / fast_pskip=1 / chroma_qp_offset=-3 / threads=6 / sliced_threads=0 / nr=0 / decimate=1 / interlaced=0 / bluray_compat=0 / constrained_intra=0 / bframes=3 / b_pyramid=2 / b_adapt=1 / b_bias=0 / direct=3 / weightb=1 / open_gop=0 / weightp=2 / keyint=250 / keyint_min=23 / scenecut=40 / intra_refresh=0 / rc_lookahead=40 / rc=2pass / mbtree=1 / bitrate=1342 / ratetol=1.0 / qcomp=0.60 / qpmin=0 / qpmax=69 / qpstep=4 / cplxblur=20.0 / qblur=0.5 / ip_ratio=1.40 / aq=1:1.00

Audio
ID: 2
Format: AC-3
Format/Info: Audio Coding 3
Mode extension: CM (complete main)
Codec ID: A_AC3
Duration: 2h 0mn
Bit rate mode: Constant
Bit rate: 384 Kbps
Channel(s): 6 channels
Channel positions: Front: L C R, Side: L R, LFE
Sampling rate: 48.0 KHz
Bit depth: 16 bits
Compression mode: Lossy
Stream size: 331 MiB (22%)

















Поделиться:




реклама партнёра


Вернуться к началу
 Профиль Отправить личное сообщение  
 
   Похожие торренты   Автор   Торрент   Размер 
В этой теме нет новых непрочитанных сообщений. Поцелуй смерти / Kiss Of Death [боевик, триллер, криминал, 1994] DVDRip, Mvo

salma3

8 | 2

1.46 ГБ

В этой теме нет новых непрочитанных сообщений. Поцелуй или убей / Kiss or Kill [триллер, драма, криминал, 1997] DVDRip, Dvo

salma3

16 | 4

1.46 ГБ

В этой теме нет новых непрочитанных сообщений. Геракл: Начало легенды / The Legend of Hercules (Ренни Харлин) [2014, боевик, фэнтези, HDRip | Чистый звук] Dub

PriZraK

2952 | 125

1.45 ГБ

В этой теме нет новых непрочитанных сообщений. Поцелуй / The Kiss [ужасы, фэнтези, триллер, драма, 1988] DVDRip-AVC, Avo

salma3

33 | 10

1.49 ГБ

В этой теме нет новых непрочитанных сообщений. Грейсленд / Graceland [S03] (Ренни Харлин) [2015, Драма, WEB-DLRip | NewStudio]

Nickolas3435

332 | 255

6.98 ГБ

В этой теме нет новых непрочитанных сообщений. Грейсленд / Graceland [S03] (Ренни Харлин) [2015, Драма, WEB-DL 720p | NewStudio]

Dracon

86 | 59

18.08 ГБ

В этой теме нет новых непрочитанных сообщений. Стиратель / Eraser [Боевик, триллер, драма, криминал, детектив, 1996] BDRip 1080p, Dub+2Mvo+Avo+Sub

salma3

27 | 6

13.95 ГБ


Начать новую тему Ответить на тему  [ 1 сообщение ] 




Для Мосгорсуда, Роскомнадзора и рекламодателей:: mosgorsud-torrent[собачка]yandex.ru