Торрент файл
скачать торрент магнет ссылка Добавлен: 01 апр 2012, 15:49
Размер: 2.01 ГБ
Сидеров: 55
Личеров: 6
Автор

СообщениеДобавлено: 01 апр 2012, 15:49 

Не в сети
Супермодератор
Аватара пользователя
Дата регистрации:
11 апр 2010, 18:10
Спасибо: 5802 / 7
Сообщения: 56779
Фрираннер / Freerunner

Перевод: Любительский (двухголосый), cубтитры: отсутствуют
Формат: HDRip-AVC, MKV, H.264, AC3
Страна: США
Режиссер: Лоуренс Силверштейн
Жанр: боевик
Продолжительность: 01:27:46
Год выпуска: 2011

В ролях: Шон Фэрис, Дэнни Дайер, Тэмер Хассан, Аманда Фуллер, Сеймур Кэссел, Мария Боннер, Кэйси Даркин, Филлип ДеВона, Джейсон Ботсфорд, Ребекка Да Коста

Описание: Беглец, скрываясь от преследователей, должен успеть добежать с одного конца города на другой, чтобы спасти себя и свою подружку. Его время ограничено бомбой вокруг шеи с обратным отсчетом.



Видео: 720x456@1071x456 (2.35:1), 23.976 fps, AVC (x264) High@L4.1, ~2646 kbps avg, 0.336 bit/pixel
Аудио #1:Русский: 48 kHz, AC3 Dolby Digital, 2/0 (L, R) ch, ~192 kbps avg [Любительский двухголосый (закадровый)]
Аудио #2:Английский: 48 kHz, AC3 Dolby Digital, 3/2 (L,C,R,l,r) + LFE ch, ~448 kbps avg [Оригинал]

Общее
Уникальный идентификатор: 254278253318536007851928549322479275920 (0xBF4C35D1743C8E9F8DF222BD7A9A8F90)
Полное имя: D:\Перенос\Загрузон\freerunner_[tfile.ru].mkv
Формат: Matroska
Версия формата: Version 2
Размер файла: 2,01 Гбайт
Продолжительность: 1 ч. 27 м.
Общий поток: 3286 Кбит/сек
Дата кодирования: UTC 2011-10-13 16:11:22
Программа кодирования: mkvmerge v5.0.0 ('Die Wahre Liebe') built on Sep 25 2011 20:33:49
Библиотека кодирования: libebml v1.2.2 + libmatroska v1.3.0

Видео
Идентификатор: 1
Формат: AVC
Формат/Информация: Advanced Video Codec
Профиль формата: High@L4.1
Параметр CABAC формата: Да
Параметр ReFrames формата: 10 кадров
Идентификатор кодека: V_MPEG4/ISO/AVC
Продолжительность: 1 ч. 27 м.
Битрейт: 2646 Кбит/сек
Ширина: 720 пикселей
Высота: 456 пикселей
Соотношение сторон: 2,35:1
Соотношение сторон в оригинале: 2,35:1
Частота кадров: 23,976 кадра/сек
Цветовое пространство: YUV
Субдискретизация насыщенности: 4:2:0
Битовая глубина: 8 бит
Тип развёртки: Прогрессивная
Бит/(Пиксели*Кадры): 0.336
Размер потока: 1,58 Гбайт (79%)
Библиотека кодирования: x264 core 118 r2085 8a62835
Настройки программы: cabac=1 / ref=10 / deblock=1:-1:-1 / analyse=0x3:0x133 / me=umh / subme=9 / psy=1 / psy_rd=1.00:0.00 / mixed_ref=1 / me_range=48 / chroma_me=1 / trellis=2 / 8x8dct=1 / cqm=0 / deadzone=21,11 / fast_pskip=1 / chroma_qp_offset=-2 / threads=12 / sliced_threads=0 / nr=0 / decimate=1 / interlaced=0 / bluray_compat=0 / constrained_intra=0 / bframes=8 / b_pyramid=2 / b_adapt=2 / b_bias=0 / direct=3 / weightb=1 / open_gop=0 / weightp=2 / keyint=250 / keyint_min=23 / scenecut=40 / intra_refresh=0 / rc_lookahead=50 / rc=2pass / mbtree=1 / bitrate=2646 / ratetol=1.0 / qcomp=0.60 / qpmin=0 / qpmax=69 / qpstep=4 / cplxblur=20.0 / qblur=0.5 / ip_ratio=1.40 / aq=1:1.00
Язык: English
Default: Да
Forced: Нет

Аудио #1
Идентификатор: 2
Формат: AC-3
Формат/Информация: Audio Coding 3
Расширение режима: CM (complete main)
Идентификатор кодека: A_AC3
Продолжительность: 1 ч. 27 м.
Вид битрейта: Постоянный
Битрейт: 192 Кбит/сек
Каналы: 2 канала
Расположение каналов: Front: L R
Частота: 48,0 КГц
Битовая глубина: 16 бит
Метод сжатия: С потерями
Размер потока: 121 Мбайт (6%)
Заголовок: DVO
Язык: Russian
Default: Да
Forced: Нет

Аудио #2
Идентификатор: 3
Формат: AC-3
Формат/Информация: Audio Coding 3
Расширение режима: CM (complete main)
Идентификатор кодека: A_AC3
Продолжительность: 1 ч. 27 м.
Вид битрейта: Постоянный
Битрейт: 448 Кбит/сек
Каналы: 6 каналов
Расположение каналов: Front: L C R, Side: L R, LFE
Частота: 48,0 КГц
Битовая глубина: 16 бит
Метод сжатия: С потерями
Размер потока: 281 Мбайт (14%)
Заголовок: Original
Язык: English
Default: Нет
Forced: Нет










Поделиться:




реклама партнёра


Вернуться к началу
 Профиль Отправить личное сообщение  
 
   Похожие торренты   Автор   Торрент   Размер 
В этой теме нет новых непрочитанных сообщений. Исправленный вариант / The Rewrite (Марк Лоуренс) [Мелодрама, Комедия, 2014] HDRip, dvo

Dracon

2 | 0

1.46 ГБ

В этой теме нет новых непрочитанных сообщений. Голодные игры: Сойка-пересмешница. Часть I / The Hunger Games: Mockingjay - Part 1 (Френсис Лоуренс) [Фантастика, Приключения, 2014] HDRip, Dub [iTunes]

Dracon

28 | 2

1.46 ГБ

В этой теме нет новых непрочитанных сообщений. Голодные игры: Сойка-пересмешница. Часть I / The Hunger Games: Mockingjay - Part 1 (Френсис Лоуренс) [Фантастика, Приключения, 2014] HDRip, dub [Чистый звук]

Dracon

16 | 2

2.04 ГБ

В этой теме нет новых непрочитанных сообщений. Голодные игры: Сойка-пересмешница. Часть I / The Hunger Games: Mockingjay - Part 1 (Френсис Лоуренс) [Фантастика, Приключения, 2014] HDRip, dub [Чистый звук]

Dracon

190 | 8

1.46 ГБ

В этой теме нет новых непрочитанных сообщений. Голодные игры: И вспыхнет пламя / The Hunger Games: Catching Fire (Френсис Лоуренс) [2013, Фантастика, боевик, триллер, приключения, экранизация, антиутопия, BDRip-AVC 1080p] [DD5.1] [MVO] [ Дублированный (Line)+ Subs Rus]

Nikolai.Baranov

0 | 2

7.22 ГБ

В этой теме нет новых непрочитанных сообщений. Причуда / Quirke [s01] (Джон Александр, Дьярмуид Лоуренс, Джим О’Хенлон) [триллер, криминал, 2013] HDTVRip, mvo

Dracon

131 | 15

3.25 ГБ

В этой теме нет новых непрочитанных сообщений. Всем нужна Кэт / Cat Run [боевик, комедия, 2011] HDRip, Mvo [лицензия]

salma3

41 | 16

1.46 ГБ


Начать новую тему Ответить на тему  [ 1 сообщение ] 




Для Мосгорсуда, Роскомнадзора и рекламодателей:: mosgorsud-torrent[собачка]yandex.ru