Торрент файл
скачать торрент магнет ссылка Добавлен: 01 апр 2012, 15:49
Размер: 1.51 ГБ
Сидеров: 7
Личеров: 10
Автор

СообщениеДобавлено: 01 апр 2012, 15:49 

Не в сети
Супермодератор
Аватара пользователя
Дата регистрации:
11 апр 2010, 18:10
Спасибо: 5960 / 7
Сообщения: 56770
[b]Заложница / Taken[/b]


Перевод: Профессиональный (полное дублирование)
Субтитры: отсутствуют
Формат: HDRip-AVC, MKV, H.264, AC3

Страна: США, Франция, Великобритания

Режиссер: Пьер Морель
Жанр: боевик, триллер, криминал
Продолжительность: 01:33:25
Год выпуска: 2008

В ролях: Лиам Нисон, Мэгги Грэйс, Лиленд Орсер, Джон Гриз, Дэвид Уоршофски, Холли Вэлэнс, Кэти Кэссиди, Ксандер Беркли, Оливье Рабурден, Жерар Уоткинс.

Описание: Молодую девушку похитили во время туристического отдыха. Её отец пускается в опасное приключение-спасение, чтобы вернуть дочь и наказать виновных лично.



Видео: 816x352 (2.35:1), 23.976 fps, AVC MPEG-4 High@L4.1 ~1896 kbps avg, 0.275 bit/pixel
Аудио: 48 kHz, AC3 Dolby Digital, 3/2 (L,C,R,l,r) + LFE ch, ~384 kbps avg

Рип от: S.I.D 'a


General
Unique ID: 252968479321433888751866697593641786500 (0xBE4FF4F9702F9947B165456CD7105C84)
Complete name: F:\Рипы от S.I.D' а\Taken.2008.D.HDRip.S.I.D.mkv
Format: Matroska
Format version: Version 2
File size: 1.51 GiB
Duration: 1h 33mn
Overall bit rate: 2 310 Kbps
Movie name: Taken.S.I.D
Encoded date: UTC 2012-02-13 21:08:10
Writing application: mkvmerge v5.0.1 ('Es ist Sommer') built on Oct 24 2011 19:45:06
Writing library: libebml v1.2.2 + libmatroska v1.3.0

Video
ID: 1
Format: AVC
Format/Info: Advanced Video Codec
Format profile: High@L4.1
Format settings, CABAC: Yes
Format settings, ReFrames: 8 frames
Muxing mode: Header stripping
Codec ID: V_MPEG4/ISO/AVC
Duration: 1h 33mn
Bit rate: 1 896 Kbps
Width: 816 pixels
Height: 352 pixels
Display aspect ratio: 2.35:1
Frame rate: 23.976 fps
Color space: YUV
Chroma subsampling: 4:2:0
Bit depth: 8 bits
Scan type: Progressive
Bits/(Pixel*Frame): 0.275
Stream size: 1.23 GiB (81%)
Writing library: x264 core 119 r2106 07efeb4
Encoding settings: cabac=1 / ref=8 / deblock=1:-1:-1 / analyse=0x3:0x111 / me=hex / subme=7 / psy=1 / psy_rd=1.00:0.10 / mixed_ref=1 / me_range=16 / chroma_me=1 / trellis=2 / 8x8dct=1 / cqm=0 / deadzone=21,11 / fast_pskip=1 / chroma_qp_offset=-6 / threads=6 / sliced_threads=0 / nr=0 / decimate=1 / interlaced=0 / bluray_compat=0 / constrained_intra=0 / bframes=3 / b_pyramid=2 / b_adapt=1 / b_bias=0 / direct=1 / weightb=1 / open_gop=0 / weightp=2 / keyint=250 / keyint_min=23 / scenecut=40 / intra_refresh=0 / rc_lookahead=40 / rc=abr / mbtree=1 / bitrate=1896 / ratetol=1.0 / qcomp=0.60 / qpmin=0 / qpmax=69 / qpstep=4 / ip_ratio=1.40 / aq=1:0.10
Language: English
Default: Yes
Forced: No

Audio
ID: 2
Format: AC-3
Format/Info: Audio Coding 3
Mode extension: CM (complete main)
Muxing mode: Header stripping
Codec ID: A_AC3
Duration: 1h 33mn
Bit rate mode: Constant
Bit rate: 384 Kbps
Channel(s): 6 channels
Channel positions: Front: L C R, Side: L R, LFE
Sampling rate: 48.0 KHz
Bit depth: 16 bits
Compression mode: Lossy
Stream size: 257 MiB (17%)
Title: Dub
Language: Russian
Default: Yes
Forced: No








Поделиться:




реклама партнёра


Вернуться к началу
 Профиль Отправить личное сообщение  
 
   Похожие торренты   Автор   Торрент   Размер 
В этой теме нет новых непрочитанных сообщений. Ганмен / The Gunman (Пьер Морель) [Боевик, Триллер, Драма, Криминал, Детектив, 2014] HDRip, Avo

Dracon

7936 | 49

1.46 ГБ

В этой теме нет новых непрочитанных сообщений. Ганмен / The Gunman (Пьер Морель) [Боевик, Триллер, Драма, Криминал, Детектив, 2014] HDRip, Dub [iTunes]

Dracon

108 | 5

1.37 ГБ

В этой теме нет новых непрочитанных сообщений. Ганмен / The Gunman (Пьер Морель) [Боевик, Триллер, Драма, Криминал, Детектив, 2014] HDRip, dub [Чистый звук]

Dracon

1 | 1

2.06 ГБ

В этой теме нет новых непрочитанных сообщений. Ганмен / The Gunman (Пьер Морель) [Боевик, Триллер, Драма, Криминал, Детектив, 2014] WEB-DL 720p, Avo

Dracon

0 | 1

4.14 ГБ

В этой теме нет новых непрочитанных сообщений. Ганмен / The Gunman (Пьер Морель) [Боевик, Триллер, Драма, Криминал, Детектив, 2014] BDRip 720p, Dub [iTunes]

Dracon

202 | 4

5.13 ГБ

В этой теме нет новых непрочитанных сообщений. Ганмен / The Gunman (Пьер Морель) [Боевик, Триллер, Драма, Криминал, Детектив, 2014] BDRip 1080p, Dub [iTunes]

Dracon

182 | 10

11.19 ГБ

В этой теме нет новых непрочитанных сообщений. Заложница 3 / Taken 3 (Оливье Мегатон) [боевик, триллер, драма, криминал, 2012] HDRip, dub [чистый звук / EXTENDED]

Dracon

7 | 5

1.37 ГБ


Начать новую тему Ответить на тему  [ 1 сообщение ] 




Для Мосгорсуда, Роскомнадзора и рекламодателей:: mosgorsud-torrent[собачка]yandex.ru