Торрент файл
скачать торрент магнет ссылка Добавлен: 01 апр 2012, 15:47
Размер: 1.49 ГБ
Сидеров: 107
Личеров: 7
Автор

СообщениеДобавлено: 01 апр 2012, 15:47 

Не в сети
Супермодератор
Аватара пользователя
Дата регистрации:
11 апр 2010, 18:10
Спасибо: 5801 / 7
Сообщения: 56779
[b]Центурион / Centurion[/b]


Перевод: Профессиональный (полное дублирование)
Субтитры: русские (форсированные вшитые)
Формат: HDRip-AVC, MKV, H.264, AC3

Страна:Франция, Великобритания

Режиссер: Нил Маршалл
Жанр: боевик, триллер, драма, приключения, военный, история
Продолжительность: 01:37:30
Год выпуска: 2010

В ролях: Майкл Фассбендер, Ольга Куриленко, Доминик Уэст, Джей Джей Филд, Андреас Висневски, Дэйв Леджено, Аксель Кэролин, Даффер Лабидин, Ли Росс, Дэвид Моррисси.

Описание: Действие разворачивается в 117 году нашей эры. Главный герой — Квинтус Диас — единственный человек, уцелевший после налёта пиктов на пограничную римскую крепость. Вместе с легендарным Девятым легионом он отправляется на север, чтобы стереть с лица земли пиктов и уничтожить их предводителя, Горлакона.



Видео: 1024x432 (2.35:1), 23.976 fps, AVC MPEG-4 High@L4.1 ~1801 kbps avg, 0.170 bit/pixel
Аудио: 48 kHz, AC3 Dolby Digital, 3/2 (L,C,R,l,r) + LFE ch, ~384 kbps avg

Рип от: S.I.D 'a


General
Unique ID: 239658899617114230129862733646961401248 (0xB44CA007F08D1E5A9E388DDB4A0D5DA0)
Complete name: F:\Рипы от S.I.D' а\Centurion.2010.D.HDRip.mkv
Format: Matroska
Format version: Version 2
File size: 1.49 GiB
Duration: 1h 37mn
Overall bit rate: 2 185 Kbps
Movie name: Centurion.S.I.D
Encoded date: UTC 2012-02-28 15:27:17
Writing application: mkvmerge v5.0.1 ('Es ist Sommer') built on Oct 24 2011 19:45:06
Writing library: libebml v1.2.2 + libmatroska v1.3.0

Video
ID: 1
Format: AVC
Format/Info: Advanced Video Codec
Format profile: High@L4.1
Format settings, CABAC: Yes
Format settings, ReFrames: 8 frames
Muxing mode: Header stripping
Codec ID: V_MPEG4/ISO/AVC
Duration: 1h 37mn
Bit rate: 1 801 Kbps
Width: 1 024 pixels
Height: 432 pixels
Display aspect ratio: 2.35:1
Frame rate: 23.976 fps
Color space: YUV
Chroma subsampling: 4:2:0
Bit depth: 8 bits
Scan type: Progressive
Bits/(Pixel*Frame): 0.170
Stream size: 1.20 GiB (80%)
Writing library: x264 core 119 r2106 07efeb4
Encoding settings: cabac=1 / ref=8 / deblock=1:-1:-1 / analyse=0x3:0x111 / me=hex / subme=7 / psy=1 / psy_rd=1.00:0.10 / mixed_ref=1 / me_range=16 / chroma_me=1 / trellis=2 / 8x8dct=1 / cqm=0 / deadzone=21,11 / fast_pskip=1 / chroma_qp_offset=-5 / threads=6 / sliced_threads=0 / nr=0 / decimate=1 / interlaced=0 / bluray_compat=0 / constrained_intra=0 / bframes=5 / b_pyramid=2 / b_adapt=2 / b_bias=0 / direct=1 / weightb=1 / open_gop=0 / weightp=2 / keyint=250 / keyint_min=23 / scenecut=40 / intra_refresh=0 / rc=abr / mbtree=0 / bitrate=1801 / ratetol=1.0 / qcomp=0.60 / qpmin=0 / qpmax=69 / qpstep=4 / ip_ratio=1.40 / pb_ratio=1.30 / aq=1:0.10
Language: English
Default: Yes
Forced: No

Audio
ID: 2
Format: AC-3
Format/Info: Audio Coding 3
Mode extension: CM (complete main)
Muxing mode: Header stripping
Codec ID: A_AC3
Duration: 1h 37mn
Bit rate mode: Constant
Bit rate: 384 Kbps
Channel(s): 6 channels
Channel positions: Front: L C R, Side: L R, LFE
Sampling rate: 48.0 KHz
Bit depth: 16 bits
Compression mode: Lossy
Stream size: 268 MiB (18%)
Title: Dub
Language: Russian
Default: Yes
Forced: No








Поделиться:




реклама партнёра


Вернуться к началу
 Профиль Отправить личное сообщение  
 
   Похожие торренты   Автор   Торрент   Размер 
В этой теме нет новых непрочитанных сообщений. Мадрас-кафе / Madras Cafe [боевик, триллер, драма, военный, история, 2013] HDRip, Mvo+Sub

salma3

8 | 3

2.17 ГБ

В этой теме нет новых непрочитанных сообщений. Каджаки: Правдивая история / Kajaki (Пол Катис) [триллер, драма, приключения, военный, 2014] HDRip [Lucky Strike]

Dracon

1446 | 52

1.46 ГБ

В этой теме нет новых непрочитанных сообщений. Каджаки: Правдивая история / Kajaki (Пол Катис) [триллер, драма, приключения, военный, 2014] HDRip [Lucky Strike]

Dracon

212 | 5

2.05 ГБ

В этой теме нет новых непрочитанных сообщений. Бахубали: Начало / Baahubali: The Beginning [Боевик, приключения, военный, история, 2015] HDRip, Dvo

salma3

1878 | 70

1.46 ГБ

В этой теме нет новых непрочитанных сообщений. В сердце моря / In the Heart of the Sea (Рон Ховард) [2015, боевик, триллер, драма, приключения, биография, история, HDRip] Dub

Nickolas3435

18969 | 903

1.46 ГБ

В этой теме нет новых непрочитанных сообщений. В сердце моря / In the Heart of the Sea [боевик, триллер, драма, приключения, биография, история, 2015] HDRip, Dub [iTunes] [КПК]

salma3

329 | 27

577.92 МБ

В этой теме нет новых непрочитанных сообщений. В сердце моря / In the Heart of the Sea (Рон Ховард) [2015, боевик, триллер, драма, приключения, биография, история, HDRip] Dub

Nickolas3435

2703 | 56

2.19 ГБ


Начать новую тему Ответить на тему  [ 1 сообщение ] 




Для Мосгорсуда, Роскомнадзора и рекламодателей:: mosgorsud-torrent[собачка]yandex.ru