Торрент файл
скачать торрент магнет ссылка Добавлен: 01 апр 2012, 15:47
Размер: 1.74 ГБ
Сидеров: 32
Личеров: 4
Автор

СообщениеДобавлено: 01 апр 2012, 15:47 

Не в сети
Супермодератор
Аватара пользователя
Дата регистрации:
11 апр 2010, 18:10
Спасибо: 5801 / 7
Сообщения: 56779
[b]Солт / Salt[/b]


Перевод: Профессиональный (полное дублирование)
Субтитры: отсутствуют
Формат: HDRip-AVC, MKV, H.264, AC3

Страна:США

Режиссер: Филлип Нойс
Жанр: боевик, триллер, криминал, детектив
Продолжительность: 01:40:00
Год выпуска: 2010

В ролях: Лив Шрайбер, Анджелина Джоли, Чиветел Эджиофор, Яра Шахиди, Гай Чарльз, Зои Листер Джонс, Виктор Слезак, Даниэль Ольбрыхский, Кэссиди Хинкль, Джеймс Шрэм.

Описание: Эвелин Солт - сотрудница ЦРУ. Ей чудом удаётся избежать тюрьмы: собственное агентство выдвигает против неё необоснованные обвинения в том, что она работает на русскую разведку. Теперь Солт необходимо восстановить своё доброе имя.



Видео: 1024x432 (2.35:1), 23.976 fps, AVC MPEG-4 High@L4.1 ~1746 kbps avg, 0.165 bit/pixel
Аудио #1: русский48 kHz, AC3 Dolby Digital, 3/2 (L,C,R,l,r) + LFE ch, ~384 kbps avg [Профессиональный (полное дублирование)]
Аудио #2: английский48 kHz, AC3 Dolby Digital, 3/2 (L,C,R,l,r) + LFE ch, ~384 kbps avg [Авторский (А.Гаврилов) [отдельно]]

Рип от: S.I.D 'a


General
Unique ID: 198394419135844187148190032426244416660 (0x954160111FF1B5CE9F127A9A66CAA494)
Complete name: F:\Рипы от S.I.D' а\Solt\Solt.2010.D.HDRip.mkv
Format: Matroska
Format version: Version 2
File size: 1.47 GiB
Duration: 1h 40mn
Overall bit rate: 2 105 Kbps
Movie name: Salt.S.I.D
Encoded date: UTC 2012-02-29 14:46:24
Writing application: mkvmerge v5.0.1 ('Es ist Sommer') built on Oct 24 2011 19:45:06
Writing library: libebml v1.2.2 + libmatroska v1.3.0

Video
ID: 1
Format: AVC
Format/Info: Advanced Video Codec
Format profile: High@L4.1
Format settings, CABAC: Yes
Format settings, ReFrames: 8 frames
Muxing mode: Header stripping
Codec ID: V_MPEG4/ISO/AVC
Duration: 1h 40mn
Bit rate: 1 746 Kbps
Width: 1 024 pixels
Height: 432 pixels
Display aspect ratio: 2.35:1
Frame rate: 23.976 fps
Color space: YUV
Chroma subsampling: 4:2:0
Bit depth: 8 bits
Scan type: Progressive
Bits/(Pixel*Frame): 0.165
Stream size: 1.17 GiB (80%)
Writing library: x264 core 119 r2106 07efeb4
Encoding settings: cabac=1 / ref=8 / deblock=1:-1:-1 / analyse=0x3:0x111 / me=hex / subme=7 / psy=1 / psy_rd=1.00:0.10 / mixed_ref=1 / me_range=16 / chroma_me=1 / trellis=2 / 8x8dct=1 / cqm=0 / deadzone=21,11 / fast_pskip=1 / chroma_qp_offset=-3 / threads=6 / sliced_threads=0 / nr=0 / decimate=1 / interlaced=0 / bluray_compat=0 / constrained_intra=0 / bframes=3 / b_pyramid=2 / b_adapt=2 / b_bias=0 / direct=1 / weightb=1 / open_gop=0 / weightp=2 / keyint=250 / keyint_min=23 / scenecut=40 / intra_refresh=0 / rc_lookahead=40 / rc=abr / mbtree=1 / bitrate=1746 / ratetol=1.0 / qcomp=0.60 / qpmin=0 / qpmax=69 / qpstep=4 / ip_ratio=1.40 / aq=1:0.10
Language: English
Default: Yes
Forced: No

Audio
ID: 2
Format: AC-3
Format/Info: Audio Coding 3
Mode extension: CM (complete main)
Muxing mode: Header stripping
Codec ID: A_AC3
Duration: 1h 40mn
Bit rate mode: Constant
Bit rate: 384 Kbps
Channel(s): 6 channels
Channel positions: Front: L C R, Side: L R, LFE
Sampling rate: 48.0 KHz
Bit depth: 16 bits
Compression mode: Lossy
Stream size: 275 MiB (18%)
Title: Dub
Language: Russian
Default: Yes
Forced: No








Поделиться:




реклама партнёра


Вернуться к началу
 Профиль Отправить личное сообщение  
 
   Похожие торренты   Автор   Торрент   Размер 
В этой теме нет новых непрочитанных сообщений. Посвященный / The Giver (Филлип Нойс) [2014, фантастика, драма, TS] Dub

Nickolas3435

173 | 6

1.37 ГБ

В этой теме нет новых непрочитанных сообщений. Посвященный / The Giver (Филлип Нойс) [2014, фантастика, драма, HDTVRip | Чистый звук] Dub

Nickolas3435

291 | 6

697.34 МБ

В этой теме нет новых непрочитанных сообщений. Возмездие / Месть / Revenge [04x01-18 из 22] (Мэтт Эрл Бисли, Филлип Нойс) [2014, Драма, WEB-DL 1080p | NewStudio]

Nickolas3435

10 | 17

31.35 ГБ

В этой теме нет новых непрочитанных сообщений. Возмездие / Месть / Revenge [04x01-14 из 22] (Мэтт Эрл Бисли, Филлип Нойс) [2014, Драма, WEB-DL 1080p | NewStudio]

Nickolas3435

29 | 27

24.22 ГБ

В этой теме нет новых непрочитанных сообщений. Возмездие / Месть / Revenge [04x01-20 из 22] (Мэтт Эрл Бисли, Филлип Нойс) [2014, Драма, WEB-DL 1080p | NewStudio]

Nickolas3435

3 | 22

34.84 ГБ

В этой теме нет новых непрочитанных сообщений. Возмездие / Месть / Revenge [04x01-13 из 22] (Мэтт Эрл Бисли, Филлип Нойс) [2014, Драма, WEB-DL 1080p | NewStudio]

Nickolas3435

6 | 10

22.37 ГБ

В этой теме нет новых непрочитанных сообщений. Эль-Ниньо / El Nino (Даниэль Монсон) [Боевик, Детектив, Криминал, Триллер, 2014] HDRip, dvo

Dracon

12 | 2

1.37 ГБ


Начать новую тему Ответить на тему  [ 1 сообщение ] 




Для Мосгорсуда, Роскомнадзора и рекламодателей:: mosgorsud-torrent[собачка]yandex.ru