Торрент файл
скачать торрент магнет ссылка Добавлен: 01 апр 2012, 15:46
Размер: 2.18 ГБ
Сидеров: 55
Личеров: 9
Автор

СообщениеДобавлено: 01 апр 2012, 15:46 

Не в сети
Супермодератор
Аватара пользователя
Дата регистрации:
11 апр 2010, 18:10
Спасибо: 5960 / 7
Сообщения: 56770
[b]Проповедник с пулеметом / Machine Gun Preacher[/b]


Слоган: Hope is the greatest weapon of all

Перевод: Любительский (двухголосый)
Cубтитры: отсутствуют
Формат: DVDRip- AVC, MKV, H.264, AC3
Страна: США
Режиссер: Марк Форстер
Жанр: боевик, драма, криминал, биография
Продолжительность: 02:03:33
Год выпуска: 2011

В ролях: Джерард Батлер, Мишель Монахэн, Кэти Бейкер, Майкл Шеннон, Мадлен Кэрролл, Соулеймейн Сай Савейн, Грант Р. Краузе, Ривис Грэхэм, Питер Кэри, Барбара Ковен...

Описание: Байкер Сэм Чайлдерс имел множество проблем с законом, но после выхода из тюрьмы, вняв мольбам жены Линн, начал посещать церковь. Бывшего преступника словно подменили: он стал примерным прихожанином, основал строительную компанию и сам возвел с нуля протестантский храм для тех, кого благополучные американцы презрительно именовали «отбросами общества»… Ровное течение жизни Сэма меняется после миссионерской поездки в Уганду и Судан.

Проникнувшись состраданием к африканским детям, он решает основать приют, в котором те чувствовали бы себя в безопасности от боевиков Господней армии Сопротивления, набирающих себе солдат и сексуальных рабынь даже среди малолетних. Своих подопечных, если потребуется, Сэм готов защищать с оружием в руках. Однако в своем рвении Чайлдерс забывает о том, что обратной стороной любого благого порыва может стать одержимость…




Видео: 720x424@1023x424 (2,40:1), 25.000 fps, AVC (х264) High@L4.1, ~ 2330 Kbps, 0.305 bit/pixel
Аудио: 48 kHz, AC3, 2 ch, ~ 192 kbps


Общее
Уникальный идентификатор: 222136332813488872457569905369175117463 (0xA71DE6C95F20F26F92558600BFC94E97)
Полное имя: propovednik_s_pylemetom_[tfile.ru].mkv
Формат: Matroska
Версия формата: Version 2
Размер файла: 2,18 Гбайт
Продолжительность: 2 ч. 3 м.
Общий поток: 2521 Кбит/сек
Дата кодирования: UTC 2012-03-02 02:32:03
Программа кодирования: mkvmerge v5.2.1 ('A Far Off Place') built on Jan2 2012 23:21:10
Библиотека кодирования: libebml v1.2.3 + libmatroska v1.3.0

Видео
Идентификатор: 1
Формат: AVC
Формат/Информация: Advanced Video Codec
Профиль формата: High@L4.1
Параметр CABAC формата: Да
Параметр ReFrames формата: 9 кадров
Идентификатор кодека: V_MPEG4/ISO/AVC
Продолжительность: 2 ч. 3 м.
Битрейт: 2330 Кбит/сек
Ширина: 720 пикселей
Высота: 424 пикселя
Соотношение сторон: 2,40:1
Частота кадров: 25,000 кадров/сек
Цветовое пространство: YUV
Субдискретизация насыщенности: 4:2:0
Битовая глубина: 8 бит
Тип развёртки: Прогрессивная
Бит/(Пиксели*Кадры): 0.305
Размер потока: 1,97 Гбайт (90%)
Библиотека кодирования: x264 core 119 r2106 07efeb4
Настройки программы: cabac=1 / ref=9 / deblock=1:-1:-1 / analyse=0x3:0x133 / me=umh / subme=9 / psy=1 / psy_rd=1.00:0.10 / mixed_ref=1 / me_range=32 / chroma_me=1 / trellis=2 / 8x8dct=1 / cqm=0 / deadzone=21,11 / fast_pskip=0 / chroma_qp_offset=-3 / threads=12 / sliced_threads=0 / nr=0 / decimate=1 / interlaced=0 / bluray_compat=0 / constrained_intra=0 / bframes=8 / b_pyramid=2 / b_adapt=2 / b_bias=0 / direct=3 / weightb=1 / open_gop=0 / weightp=2 / keyint=250 / keyint_min=25 / scenecut=40 / intra_refresh=0 / rc=2pass / mbtree=0 / bitrate=2330 / ratetol=1.0 / qcomp=0.60 / qpmin=0 / qpmax=69 / qpstep=4 / cplxblur=20.0 / qblur=0.5 / ip_ratio=1.40 / pb_ratio=1.30 / aq=1:1.00
Язык: English

Аудио
Идентификатор: 2
Формат: AC-3
Формат/Информация: Audio Coding 3
Расширение режима: CM (complete main)
Идентификатор кодека: A_AC3
Продолжительность: 2 ч. 3 м.
Вид битрейта: Постоянный
Битрейт: 192 Кбит/сек
Каналы: 2 канала
Расположение каналов: Front: L R
Частота: 48,0 КГц
Битовая глубина: 16 бит
Метод сжатия: С потерями
Размер потока: 170 Мбайт (8%)
Язык: Russian

Меню
00:00:00.000: :Chapter 01
00:10:30.840: :Chapter 02
00:21:41.520: :Chapter 03
00:31:09.280: :Chapter 04
00:41:48.520: :Chapter 05
00:52:11.160: :Chapter 06
01:00:50.440: :Chapter 07
01:10:34.240: :Chapter 08
01:19:57.000: :Chapter 09
01:28:21.080: :Chapter 10
01:40:39.360: :Chapter 11
01:50:36.640: :Chapter 12











[/shots]













Поделиться:




реклама партнёра


Вернуться к началу
 Профиль Отправить личное сообщение  
 
   Похожие торренты   Автор   Торрент   Размер 
В этой теме нет новых непрочитанных сообщений. Проповедник / Preacher [S02] [Фэнтези, драма, детектив, 2017] WEB-DLRip, Mvo [IdeaFilm]

salma3

123 | 201

7.81 ГБ

В этой теме нет новых непрочитанных сообщений. Проповедник / Preacher [S02] [Фэнтези, драма, детектив, 2017] WEB-DLRip, Mvo [LostFilm]

salma3

38 | 77

6.9 ГБ

В этой теме нет новых непрочитанных сообщений. Проповедник / Preacher [S02] [фантастика, драма, комедия, 2017] WEB-DL 1080p, Dvo [LevshaFilm]

salma3

15 | 19

35.07 ГБ

В этой теме нет новых непрочитанных сообщений. Проповедник / Preacher [S02] [фантастика, драма, комедия, 2017] WEB-DL 720p, Dvo [LevshaFilm]

salma3

10 | 15

17.48 ГБ

В этой теме нет новых непрочитанных сообщений. Проповедник / Preacher [S02] [Фэнтези, драма, детектив, 2017] WEBR-DL 720p, Mvo [LostFilm]

salma3

32 | 67

17.7 ГБ

В этой теме нет новых непрочитанных сообщений. Проповедник / Preacher [S01] [Фэнтези, драма, детектив, приключения, 2016] WEB-DL 1080p, Mvo [Кравец]

salma3

38 | 67

17.57 ГБ

В этой теме нет новых непрочитанных сообщений. Проповедник / Preacher [S01] [Фэнтези, драма, детектив, приключения, 2016] WEB-DL 720p, Mvo [Кравец]

salma3

52 | 73

10.15 ГБ


Начать новую тему Ответить на тему  [ 1 сообщение ] 




Для Мосгорсуда, Роскомнадзора и рекламодателей:: mosgorsud-torrent[собачка]yandex.ru