Торрент файл
скачать торрент магнет ссылка Добавлен: 01 апр 2012, 15:44
Размер: 745.54 МБ
Сидеров: 148
Личеров: 13
Автор

СообщениеДобавлено: 01 апр 2012, 15:44 

Не в сети
Супермодератор
Аватара пользователя
Дата регистрации:
11 апр 2010, 18:10
Спасибо: 5962 / 7
Сообщения: 56765
Оправданная жестокость / A History of Violence


Перевод: Профессиональный (полное дублирование), cубтитры: отсутствуют
Формат: LowHDRip-AVC, MKV, H.264, MP3
Страна: США, Германия
Режиссер: Дэвид Кроненберг
Жанр: боевик, триллер, драма, криминал
Продолжительность: 01:35:43
Год выпуска: 2005

В ролях: Вигго Мортенсен, Мария Белло, Эд Харрис, Уильям Херт, Эштон Холмс, Питер Макнейл, Стивен МакХэтти, Грег Брайк, Кайл Шмид, Самела Кэй

Описание: Двое бандитов путешествуют по американской провинции, оставляя после себя многочисленные трупы. Однажды они оказываются в тихом городке Миллбрук, штат Индиана. В этом городе живёт Том Столл, уважаемый всеми владелец небольшой закусочной, и его семья — жена Иди и двое детей, Джек и Сара. При попытке вооружённого ограбления своей закусочной Том Столл убивает бандитов и становится местным героем, о его подвиге упоённо рассказывает телевидение. На следующий день в Миллбруке появляются загадочные люди, которые почему-то называют Тома именем Джоуи и расспрашивают его о Филадельфии.

____

Видео: 720 x 384 (1.86:1), 23.976 fps, AVC (х264) High@L4.1, ~ 959 Kbps, 0.145 bit/pixel
Аудио: 48 kHz, MPEG Layer 3, 2 ch, ~128.00 kbps avg


Рип: jeenart


    Съёмки картины проходили на родине режиссёра Дэвида Кроненберга в Канаде. Роль вымышленного американского города Миллбрук, штат Индиана, сыграл город Миллбрук в провинции Онтарио; сцены фильма, происходящие в Филадельфии, снимались в Торонто.
    Одна из самых затратных и жестоких сцен ленты (известная также как «сцена 44») — сон Тома Столла, в котором он убивает Карла Фогарти, — в фильм не попала. Режиссёр счёл её неуместной ссылкой на свои предыдущие работы. Эта сцена с комментариями Кроненберга вошла в DVD-издание «Оправданной жестокости».
    Прокатные версии фильма для США и остального мира несколько отличаются. Специально для американского проката Кроненберг сделал два эпизода чуть менее кровавыми.
    Премьера фильма «Оправданная жестокость» состоялась 16 мая 2005 года в рамках 58-го Каннского кинофестиваля. Картина участвовала в основном конкурсе.
  • При подведении кинокритиками итогов 2000-х годов «Оправданная жестокость» часто фигурировала в списках лучших фильмов десятилетия (в первой пятёрке по версии «Кайе дю синема», «Rolling Stone» и «Village Voice»).



Для меня, Кроненберг остается до сих пор одним из самых загадочных режиссеров современности. «Naked Lunch», «Мертвая зона», «Видеодром», «Eastern Promises», «Экзистенция»… фильмы абсолютно далекие друг от друга по жанру, но в каждом из них чувствуется непревзойденная рука мэтра.

«Оправданная жестокость» (название, данное русскими прокатчиками) поражает откровенными и откровенно-жестокими сценами секса и насилия, отчего погружение в действие на экране оказывается сродни погружению в виртуальную реальность. Сюжет закручен вовсе не лихо, но его развитие…

Ни в коем случае не читайте аннотацию к фильму! Достаточно увидеть список актеров и фамилию Кроненберг.

Смотрите! Не пожалеете!

P.S. Мне он напомнил, «Старикам тут не место» братцев Коэнов.

dirt diggler
General
Unique ID: 253557528487942708821821428827761103192 (0xBEC167572D783705A708D387FB2B515
Complete name: F:\Мои релизы\Все релизы 10\opravdannaja_zhestokost_[tfile.ru].mkv
Format: Matroska
File size: 746 MiB
Duration: 1h 35mn
Overall bit rate: 1 089 Kbps
Encoded date: UTC 2012-03-11 20:30:42
Writing application: mkvmerge v4.6.0 ('Still Crazy After All These Years') сборка от Apr1 2011 21:01:49
Writing library: libebml v1.2.0 + libmatroska v1.1.0

Video
ID: 1
Format: AVC
Format/Info: Advanced Video Codec
Format profile: High@L4.1
Format settings, CABAC: Yes
Format settings, ReFrames: 4 frames
Codec ID: V_MPEG4/ISO/AVC
Duration: 1h 35mn
Bit rate: 959 Kbps
Width: 720 pixels
Height: 384 pixels
Display aspect ratio: 1.875
Frame rate: 23.976 fps
Color space: YUV
Chroma subsampling: 4:2:0
Bit depth: 8 bits
Scan type: Progressive
Bits/(Pixel*Frame): 0.145
Stream size: 643 MiB (86%)
Writing library: x264 core 115 r1937 aa21558
Encoding settings: cabac=1 / ref=3 / deblock=1:-1:-1 / analyse=0x3:0x113 / me=hex / subme=7 / psy=1 / psy_rd=1.00:0.10 / mixed_ref=1 / me_range=16 / chroma_me=1 / trellis=1 / 8x8dct=1 / cqm=0 / deadzone=21,11 / fast_pskip=1 / chroma_qp_offset=-3 / threads=6 / sliced_threads=0 / nr=0 / decimate=1 / interlaced=0 / bluray_compat=0 / constrained_intra=0 / bframes=3 / b_pyramid=2 / b_adapt=1 / b_bias=0 / direct=3 / weightb=1 / open_gop=0 / weightp=2 / keyint=250 / keyint_min=23 / scenecut=40 / intra_refresh=0 / rc_lookahead=40 / rc=2pass / mbtree=1 / bitrate=959 / ratetol=1.0 / qcomp=0.60 / qpmin=0 / qpmax=69 / qpstep=4 / cplxblur=20.0 / qblur=0.5 / ip_ratio=1.40 / aq=1:1.00

Audio
ID: 2
Format: MPEG Audio
Format version: Version 1
Format profile: Layer 3
Mode: Joint stereo
Codec ID: A_MPEG/L3
Codec ID/Hint: MP3
Duration: 1h 35mn
Bit rate mode: Constant
Bit rate: 128 Kbps
Channel(s): 2 channels
Sampling rate: 48.0 KHz
Compression mode: Lossy
Stream size: 87.6 MiB (12%)
Writing library: LAME3.98r
Encoding settings: -m j -V 4 -q 2 -lowpass 17 -b 128















Поделиться:




реклама партнёра


Вернуться к началу
 Профиль Отправить личное сообщение  
 
   Похожие торренты   Автор   Торрент   Размер 
В этой теме нет новых непрочитанных сообщений. Американская жестокость / American Violence [триллер, драма, криминал, 2017] НDRip, Mvo

salma3

1276 | 300

1.46 ГБ

В этой теме нет новых непрочитанных сообщений. Американская жестокость / American Violence [триллер, драма, криминал, 2017] BDRip 1080p, Mvo

salma3

177 | 147

8.71 ГБ

В этой теме нет новых непрочитанных сообщений. Американская жестокость / American Violence [триллер, драма, криминал, 2017] BDRip 720p, Mvo

salma3

127 | 112

4.57 ГБ

В этой теме нет новых непрочитанных сообщений. Звездная карта / Maps to the Stars (Дэвид Кроненберг) [драма, 2014] BDRip, Mvo [Лицензия]

Dracon

139 | 6

2.16 ГБ

В этой теме нет новых непрочитанных сообщений. Звездная карта / Maps to the Stars (Дэвид Кроненберг) [драма, 2014] BDRip 1080p, Mvo+Sub [Лицензия]+Avo

Dracon

44 | 6

12.04 ГБ

В этой теме нет новых непрочитанных сообщений. Звездная карта / Maps to the Stars (Дэвид Кроненберг) [драма, 2014] BDRip 720p, Mvo+Sub [Лицензия]+Avo

Dracon

46 | 6

6.84 ГБ

В этой теме нет новых непрочитанных сообщений. Стрела / Arrow / 4 сезон 1-23 серия из 23 (Дэвид Баррет, Дэвид Наттер, Джон Беринг) [2015, Фантастика, боевик, драма, криминал, детектив, приключения, комикс, WEB-DLRip | LostFilm]

Dracon

530 | 442

12.92 ГБ


Начать новую тему Ответить на тему  [ 1 сообщение ] 




Для Мосгорсуда, Роскомнадзора и рекламодателей:: mosgorsud-torrent[собачка]yandex.ru