Торрент файл
скачать торрент магнет ссылка Добавлен: 21 мар 2012, 17:19
Размер: 2.33 ГБ
Сидеров: 1
Личеров: 1
Статус: (Dracon)
Автор

СообщениеДобавлено: 21 мар 2012, 17:19 

Не в сети
Зам. Админа
Аватара пользователя
Дата регистрации:
02 дек 2010, 12:39
Спасибо: 12461 / 214
Сообщения: 27968

Год выхода: 2011
Жанр: триллер, детектив
Режиссер: Энрике Урбису / Enrique Urbizu

В ролях: Хосе Коронадо, Родольфо Санчо, Хелена Микель, Хуан Хосе Артеро, Пэдро Мария Санчес, Юн Башир, Надя Касадо, Хуан Пабло Шак, Эдуард Фарело, Карим Эль-Керем

О фильме:
Однажды в воскресенье по пути домой сильно выпивший инспектор полиции оказывается замешан в тройном убийстве, при этом способный опознать его свидетель ускользает с места происшествия. Судья Чакон получает задание расследовать происшествие. Оба они быстро понимают, что все оказывается намного сложнее, чем поначалу казалось, и простое дело наркотрафика перерастает в нечто более опасное.




Страна: Испания
Продолжительность: 01:53:36
Перевод: Одноголосый закадровый Lisitz

Кодек: H264 / AC3
Качество: BDRip-AVC
Видео: MPEG4 Video (H264) 1024x432 (1024:435) 24fps 2549 Kbps
Звук: AC3 48000Hz 6ch 16 bits 384 Kbps





General
Unique ID: 242014927033762488979584577372094962423 (0xB6126126AB6BF3E2BBD2265435DF9AF7)
Complete name: C:No.Habra.Paz.Para.los.Malvados.2011.BDRip-AVC.mkv
Format: Matroska
Format version: Version 2
File size: 2.33 GiB
Duration: 1h 53mn
Overall bit rate mode: Variable
Overall bit rate: 2 934 Kbps
Encoded date: UTC 2012-03-21 10:26:41
Writing application: mkvmerge v5.2.1 ('A Far Off Place') built on Jan2 2012 23:21:10
Writing library: libebml v1.2.3 + libmatroska v1.3.0

Video
ID: 1
Format: AVC
Format/Info: Advanced Video Codec
Format profile: High@L4.1
Format settings, CABAC: Yes
Format settings, ReFrames: 3 frames
Muxing mode: Header stripping
Codec ID: V_MPEG4/ISO/AVC
Duration: 1h 53mn
Bit rate mode: Variable
Bit rate: 2 549 Kbps
Maximum bit rate: 40.0 Mbps
Width: 1 024 pixels
Height: 432 pixels
Display aspect ratio: 2.35:1
Original display aspect ratio: 2.35:1
Frame rate: 24.000 fps
Color space: YUV
Chroma subsampling: 4:2:0
Bit depth: 8 bits
Scan type: Progressive
Bits/(Pixel*Frame): 0.240
Stream size: 1.98 GiB (85%)
Writing library: x264 core 120 r2164 da19765
Encoding settings: cabac=1 / ref=4 / deblock=1:0:0 / analyse=0x3:0x113 / me=hex / subme=7 / psy=1 / psy_rd=1.00:0.00 / mixed_ref=1 / me_range=16 / chroma_me=1 / trellis=0 / 8x8dct=1 / cqm=0 / deadzone=21,11 / fast_pskip=1 / chroma_qp_offset=-2 / threads=12 / sliced_threads=0 / slices=4 / nr=0 / decimate=1 / interlaced=0 / bluray_compat=0 / constrained_intra=0 / bframes=3 / b_pyramid=1 / b_adapt=1 / b_bias=0 / direct=1 / weightb=1 / open_gop=0 / weightp=2 / keyint=23 / keyint_min=1 / scenecut=40 / intra_refresh=0 / rc_lookahead=23 / rc=2pass / mbtree=1 / bitrate=2549 / ratetol=1.0 / qcomp=0.60 / qpmin=10 / qpmax=51 / qpstep=4 / cplxblur=20.0 / qblur=0.5 / vbv_maxrate=40000 / vbv_bufsize=30000 / nal_hrd=vbr / ip_ratio=1.40 / aq=1:1.00
Language: Russian
Default: Yes
Forced: No

Audio
ID: 2
Format: AC-3
Format/Info: Audio Coding 3
Mode extension: CM (complete main)
Muxing mode: Header stripping
Codec ID: A_AC3
Duration: 1h 53mn
Bit rate mode: Constant
Bit rate: 384 Kbps
Channel(s): 6 channels
Channel positions: Front: L C R, Side: L R, LFE
Sampling rate: 48.0 KHz
Bit depth: 16 bits
Compression mode: Lossy
Stream size: 312 MiB (13%)
Language: Russian
Default: Yes
Forced: No






реклама партнёра


Вернуться к началу
 Профиль  
 
   Похожие торренты   Автор   Торрент   Размер 
В этой теме нет новых непрочитанных сообщений. Путь нечестивых / Way of the Wicked [триллер, драма, 2014] HDRip, Dvo

salma3

223 | 7

1.37 ГБ

В этой теме нет новых непрочитанных сообщений. Путь нечестивых / Way of the Wicked (Кевин Каррауэй) [2014, Триллер, драма, BDRemux 1080p] dvo

Nickolas3435

103 | 17

18.5 ГБ

В этой теме нет новых непрочитанных сообщений. Ни минуты покоя / Une heure de tranquillité (Патрис Леконт) [комедия, 2014] BDRip 720p, Dub [iTunes]

Dracon

934 | 37

3.71 ГБ

В этой теме нет новых непрочитанных сообщений. К Элизе / Para Elisa [Триллер, 2013] HDTVRip-AVC, Mvo

salma3

78 | 13

1.37 ГБ

В этой теме нет новых непрочитанных сообщений. К Элизе / Para Elisa [триллер, 2013] DVDRip, Mvo

salma3

521 | 22

1.36 ГБ

В этой теме нет новых непрочитанных сообщений. К Элизе /  Para Elisa (Жуанра Фернандес) [Триллер, 2013] WEB-DLRip, Mvo

Dracon

5 | 2

1.36 ГБ

В этой теме нет новых непрочитанных сообщений. К Элизе /  Para Elisa (Жуанра Фернандес) [Триллер, 2013] WEB-DL 1080p, Mvo

Dracon

42 | 3

2.29 ГБ


Начать новую тему Ответить на тему  [ 1 сообщение ] 




Для Мосгорсуда, Роскомнадзора и рекламодателей:: mosgorsud-torrent[собачка]yandex.ru