Торрент файл
скачать торрент магнет ссылка Добавлен: 13 мар 2012, 11:20
Размер: 742.29 МБ
Сидеров: 18
Личеров: 2
Статус: (Dracon)
Автор

СообщениеДобавлено: 13 мар 2012, 11:20 

Не в сети
Зам. Админа
Аватара пользователя
Дата регистрации:
02 дек 2010, 12:39
Спасибо: 12460 / 214
Сообщения: 27968

Год выхода: 2010
Жанр: драма, комедия
Режиссер: Ричард Айоаде / Richard Ayoade
В ролях: Ноа Тейлор, Пэдди Консидайн, Крэйг Робертс, Ясмин Пейдж, Салли Хокинс, Даррен Эванс, Озиан Кай Дулаис, Лили МакКанн, Отис Ллойд, Элинор Кроули

О фильме:
Познакомьтесь с Оливером Тейтом — не по годам развитым тинэйджером, неисправимым романтиком и сентиментальным мечтателем, которого никто не воспринимает всерьёз. Главные цели Оливера: сохранить разваливающийся брак своих родителей и лишиться девственности до наступления шестнадцати лет в объятиях девушки мечты.

Страна: США, Великобритания
Продолжительность: 01:36:53
Перевод: Профессиональный (многоголосый закадровый)

Кодек: XviD / MP3
Качество: HDRip
Видео: XviD, 624x336 (1.857), 23.976 fps, 934 Kbps (0.186 bit/pixel)
Звук: MP3, 48.0 KHz, 2 ch, 128 Kbps, CBR

General
Complete name: E:Submarine_HDRip.MVO.745_[Rutor.org].avi
Format: AVI
Format/Info: Audio Video Interleave
File size: 742 MiB
Duration: 1h 36mn
Overall bit rate: 1 071 Kbps
Writing application: VirtualDubMod 1.5.10.2 (build 2540/release)
Writing library: VirtualDubMod build 2540/release

Video
ID: 0
Format: MPEG-4 Visual
Format profile: Advanced Simple@L5
Format settings, BVOP: 1
Format settings, QPel: No
Format settings, GMC: No warppoints
Format settings, Matrix: Custom
Codec ID: XVID
Codec ID/Hint: XviD
Duration: 1h 36mn
Bit rate: 934 Kbps
Width: 624 pixels
Height: 336 pixels
Display aspect ratio: 1.857
Frame rate: 23.976 fps
Color space: YUV
Chroma subsampling: 4:2:0
Bit depth: 8 bits
Scan type: Progressive
Compression mode: Lossy
Bits/(Pixel*Frame): 0.186
Stream size: 647 MiB (87%)
Writing library: XviD 1.2.1 (UTC 2008-12-04)

Audio
ID: 1
Format: MPEG Audio
Format version: Version 1
Format profile: Layer 3
Codec ID: 55
Codec ID/Hint: MP3
Duration: 1h 36mn
Bit rate mode: Constant
Bit rate: 128 Kbps
Channel(s): 2 channels
Sampling rate: 48.0 KHz
Compression mode: Lossy
Stream size: 88.7 MiB (12%)
Alignment: Aligned on interleaves
Interleave, duration: 42 ms (1.00 video frame)
Interleave, preload duration: 504 ms
Writing library: LAME3.97
Encoding settings: -m s -V 4 -q 2 -lowpass 17 -b 128




реклама партнёра


Вернуться к началу
 Профиль  
 
   Похожие торренты   Автор   Торрент   Размер 
В этой теме нет новых непрочитанных сообщений. Дитя субмарины / The Submarine Kid [Драма, мелодрама, 2016] WEB-DLRip, Dvo

salma3

552 | 48

1.38 ГБ

В этой теме нет новых непрочитанных сообщений. Submarine Adventure Sea [Arcade, 2015] [Лицензия]

viber

0 | 0

43.21 МБ

В этой теме нет новых непрочитанных сообщений. Urge Overkill - Rock & Roll Submarine [2011, Alternative Rock, MP3]

PriZraK

0 | 1

91.24 МБ

В этой теме нет новых непрочитанных сообщений. Лапландская одиссея / Napapiirin sankarit [комедия, драма, мелодрама, 2010] HDRip, Mvo

salma3

59 | 2

1.36 ГБ

В этой теме нет новых непрочитанных сообщений. Сделано в Дагенхэме / Made in Dagenham [драма, комедия, исторический, 2010] HDRip, Dvo

salma3

44 | 8

1.45 ГБ

В этой теме нет новых непрочитанных сообщений. Зачем мы женимся снова? / Why Did I Get Married Too? [драма, мелодрама, комедия, 2010] HDRip, Mvo [лицензия]

salma3

0 | 2

1.46 ГБ

В этой теме нет новых непрочитанных сообщений. National Geographic. С точки зрения науки. Субмарины 21 века / National Geographic. Naked Science. 21st Century Submarine [документальный, 2011] HDTVRip, Avo

salma3

1 | 3

678.77 МБ


СообщениеДобавлено: 13 мар 2012, 15:26 

Не в сети
Дата регистрации:
24 янв 2012, 16:02
Спасибо: 5 / 42
Сообщения: 7
Хрень полная,а не фильм


Вернуться к началу
 Профиль Отправить личное сообщение  
 
Начать новую тему Ответить на тему  [ Сообщений: 2 ] 




Для Мосгорсуда, Роскомнадзора и рекламодателей:: mosgorsud-torrent[собачка]yandex.ru