Торрент файл
скачать торрент магнет ссылка Добавлен: 08 мар 2012, 15:39
Размер: 700.02 МБ
Сидеров: 21
Личеров: 8
Статус: (Dracon)
Автор

СообщениеДобавлено: 08 мар 2012, 15:39 

Не в сети
Зам. Админа
Аватара пользователя
Дата регистрации:
02 дек 2010, 12:39
Спасибо: 12461 / 214
Сообщения: 27968


Страна: США, Италия
Жанр:Фэнтези, комедия, семейный
Год выпуска: 2002
Продолжительность: 01:50:31
Перевод: Профессиональный (многоголосый закадровый)
Субтитры: нет

Режиссёр: Роберто Бениньи / Roberto Benigni

В ролях: Роберто Бениньи, Николетта Браски, Карло Джуффре, Ким Росси Стюарт, Пеппе Барра, Мино Беллеи, Макс Каваллари, Бруно Арена, Луис Мольтени, Алессандро Берзонзони

Описание фильма: Сказка Карло Коллоди одна из самых смешных в мировой литературе. Деревянный Пиноккио в исполнении мастера комедийного жанра Роберто Бениньи не оставит равнодушным никого! Его герой все такой же несносный, доверчивый, остроумный, упрямый и добрый. А фильм, снятый с большим размахом, фантазией и душой, населен живописными существами, говорящими животными и многочисленными сказочными персонажами!



Качество: DVDRip
Формат: AVI
Видео: XviD; 704x304 (2.35:1); 750 Kbps; 23,976 fps; 0,146 bpp
Аудио: Russian; MPEG-1 Audio layer 3; 128 Kbps; CBR; 2 ch









Общее
Полное имя: C:2002_Pinocchio.avi
Формат: AVI
Формат/Информация: Audio Video Interleave
Размер файла: 700 Мбайт
Продолжительность: 1 ч. 50 м.
Общий поток: 885 Кбит/сек
Программа кодирования: VirtualDubMod 1.5.4.1 (build 2178/release)
Библиотека кодирования: VirtualDubMod build 2178/release

Видео
Идентификатор: 0
Формат: MPEG-4 Visual
Профиль формата: Advanced Simple@L5
Параметр BVOP формата: 1
Параметр QPel формата: Нет
Параметр GMC формата: Без точки перехода
Параметр матрицы формата: Выборочная
Идентификатор кодека: XVID
Идентификатор кодека/Подсказка: XviD
Продолжительность: 1 ч. 50 м.
Битрейт: 750 Кбит/сек
Ширина: 704 пикселя
Высота: 304 пикселя
Соотношение сторон: 2,35:1
Частота кадров: 23,976 кадра/сек
Цветовое пространство: YUV
Субдискретизация насыщенности: 4:2:0
Битовая глубина: 8 бит
Тип развёртки: Прогрессивная
Метод сжатия: С потерями
Бит/(Пиксели*Кадры): 0.146
Размер потока: 593 Мбайт (85%)
Библиотека кодирования: XviD 1.1.0 RC (UTC 2005-11-22)

Аудио
Идентификатор: 1
Формат: MPEG Audio
Версия формата: Version 1
Профиль формата: Layer 3
Режим: Joint stereo
Расширение режима: MS Stereo
Идентификатор кодека: 55
Идентификатор кодека/Подсказка: MP3
Продолжительность: 1 ч. 50 м.
Вид битрейта: Постоянный
Битрейт: 128 Кбит/сек
Каналы: 2 канала
Частота: 48,0 КГц
Метод сжатия: С потерями
Размер потока: 101 Мбайт (14%)
Выравнивание: Соединение по промежуткам
Продолжительность промежутка: 83мс. (2,00 видеокадра)
Время предзагрузки промежутка: 504мс.
Библиотека кодирования: LAME3.96r
Настройки программы: -m j -V 4 -q 2 -lowpass 17.5 -b 128
Язык: Russian


Релиз от: YarkayaDaryasha




реклама партнёра


Вернуться к началу
 Профиль  
 
   Похожие торренты   Автор   Торрент   Размер 
В этой теме нет новых непрочитанных сообщений. Призрачная команда / The Scream Team [Комедия, фэнтези, семейный, 2002] WEBRip 720p, Mvo+Sub

salma3

139 | 48

3.2 ГБ

В этой теме нет новых непрочитанных сообщений. Ученик Мерлина / The Sorcerer's Apprentice [Фэнтези, приключения, семейный, 2002] DVDRip, Dub

salma3

11 | 2

1.37 ГБ

В этой теме нет новых непрочитанных сообщений. Гуру / The Guru [Фэнтези, мелодрама, комедия, музыка, 2002] DVDRip, Mvo

salma3

12 | 4

1.45 ГБ

В этой теме нет новых непрочитанных сообщений. Рождественский Купидон / Christmas Cupid [Фэнтези, Комедия, Семейный, 2010] DVDRip, Dub

salma3

439 | 28

1.06 ГБ

В этой теме нет новых непрочитанных сообщений. Лего. Фильм / The Lego Movie [мультфильм, фэнтези, комедия, приключения, семейный, 2014] DVDRip, dub [Звук с TS]

Dracon

238 | 6

1.37 ГБ

В этой теме нет новых непрочитанных сообщений. Мятежный дух / Rebelde way [S01-02] [Драма, мелодрама, комедия, семейный, музыка. 2002-2003] SATRip, Mvo

salma3

5 | 15

116.19 ГБ

В этой теме нет новых непрочитанных сообщений. Большой толстый лгун / Big Fat Liar [Комедия, приключения, семейный, 2002] BDRip 1080p, Mvo

salma3

13 | 4

12.01 ГБ


Начать новую тему Ответить на тему  [ 1 сообщение ] 




Для Мосгорсуда, Роскомнадзора и рекламодателей:: mosgorsud-torrent[собачка]yandex.ru