Торрент файл
скачать торрент магнет ссылка Добавлен: 01 мар 2012, 20:01
Размер: 2.19 ГБ
Сидеров: 116
Личеров: 11
Автор

СообщениеДобавлено: 01 мар 2012, 20:01 

Не в сети
Супермодератор
Аватара пользователя
Дата регистрации:
11 апр 2010, 18:10
Спасибо: 5799 / 7
Сообщения: 56779
Девушка из «Голого глаза» / The Girl from the Naked Eye

Перевод: Любительский (одноголосый) [den904], cубтитры: отсутствуют
Формат: HDRip-AVC, MKV, H.264, AC3
Страна: США
Режиссер: Дэвид Рен
Жанр: боевик, триллер, драма
Продолжительность: 01:23:41
Год выпуска: 2012

В ролях: Джейсон Йи, Саманта Стритс, Гари Стретч, Доминик Суэйн, Рон Йуан, Уилсон Жермен Эредия, Джерри Йинг, Джеймс Лью, Пит Антико

Описание: Девушка Сэнди работает по вызову, обслуживая клуб «Голый глаз», у неё есть водитель Джейк, который отвечает за неё головой. Когда Джейк находит её мёртвой в своей квартире, то решает начать своё собственное расследование смерти Сэнди и начинает охоту на её убийц.



Видео: 1280x544 (2.35:1), 24 fps, AVC (x264) High@L3.1, ~2890 kbps avg, 0.197 bit/pixel
Аудио: 48 kHz, AC3 Dolby Digital, 3/2 (L,C,R,l,r) + LFE ch, ~448 kbps

Общее
Уникальный идентификатор: 235200254241418512042198181431527349696 (0xB0F1EBD7816C69078D6B216FC3AC1DC0)
Полное имя: C:\Users\Radik\Downloads\the_girl_from_the_naked_eye_[tfile.ru].mkv
Формат: Matroska
Версия формата: Version 2
Размер файла: 2,19 Гбайт
Продолжительность: 1 ч. 23 м.
Общий поток: 3338 Кбит/сек
Дата кодирования: UTC 2012-01-30 12:42:23
Программа кодирования: mkvmerge v4.9.1 ('Ich will') сборка от Jul 11 2011 23:53:15
Библиотека кодирования: libebml v1.2.1 + libmatroska v1.1.1

Видео
Идентификатор: 1
Формат: AVC
Формат/Информация: Advanced Video Codec
Профиль формата: High@L3.1
Параметр CABAC формата: Да
Параметр ReFrames формата: 2 кадра
Режим смешивания: Header stripping
Идентификатор кодека: V_MPEG4/ISO/AVC
Продолжительность: 1 ч. 23 м.
Битрейт: 2890 Кбит/сек
Ширина: 1280 пикселей
Высота: 544 пикселя
Соотношение сторон: 2,35:1
Режим частоты кадров: Переменный
Частота кадров: 24,000 кадра/сек
Цветовое пространство: YUV
Субдискретизация насыщенности: 4:2:0
Битовая глубина: 8 бит
Тип развёртки: Прогрессивная
Бит/(Пиксели*Кадры): 0.197
Размер потока: 1,88 Гбайт (86%)
Библиотека кодирования: x264 core 112 r1834 a51816a
Настройки программы: cabac=1 / ref=2 / deblock=1:0:0 / analyse=0x3:0x113 / me=hex / subme=6 / psy=1 / psy_rd=1.00:0.00 / mixed_ref=0 / me_range=16 / chroma_me=1 / trellis=0 / 8x8dct=1 / cqm=0 / deadzone=21,11 / fast_pskip=1 / chroma_qp_offset=-2 / threads=8 / sliced_threads=0 / nr=0 / decimate=1 / interlaced=0 / constrained_intra=0 / bframes=3 / b_pyramid=0 / b_adapt=1 / b_bias=0 / direct=3 / weightb=1 / open_gop=0 / weightp=2 / keyint=250 / keyint_min=25 / scenecut=40 / intra_refresh=0 / rc_lookahead=40 / rc=2pass / mbtree=1 / bitrate=3290 / ratetol=1.0 / qcomp=0.60 / qpmin=10 / qpmax=51 / qpstep=4 / cplxblur=20.0 / qblur=0.5 / ip_ratio=1.41 / aq=1:1.00
Default: Да
Forced: Нет

Аудио
Идентификатор: 2
Формат: AC-3
Формат/Информация: Audio Coding 3
Расширение режима: CM (complete main)
Режим смешивания: Header stripping
Идентификатор кодека: A_AC3
Продолжительность: 1 ч. 23 м.
Вид битрейта: Постоянный
Битрейт: 448 Кбит/сек
Каналы: 6 каналов
Расположение каналов: Front: L C R, Side: L R, LFE
Частота: 48,0 КГц
Битовая глубина: 16 бит
Метод сжатия: С потерями
Размер потока: 268 Мбайт (12%)
Язык: Russian
Default: Да
Forced: Нет






Поделиться:




реклама партнёра


Вернуться к началу
 Профиль Отправить личное сообщение  
 
   Похожие торренты   Автор   Торрент   Размер 
В этой теме нет новых непрочитанных сообщений. Последняя девушка / Final Girl (Тайлер Шилдс) [Триллер, Боевик, Драма, 2015] HDRip, avo

Dracon

27 | 1

1.47 ГБ

В этой теме нет новых непрочитанных сообщений. Девушка по вызову / Call Girl [триллер, драма, 2012] BDRemux 1080p, Dvo [НТВ+]

salma3

17 | 9

35.84 ГБ

В этой теме нет новых непрочитанных сообщений. Последняя девушка / Final Girl (Тайлер Шилдс) [Триллер, Боевик, Драма, 2015] BDRip 1080p, avo

Dracon

5 | 0

5.78 ГБ

В этой теме нет новых непрочитанных сообщений. Девушка в беде / The Girl Is in Trouble [боевик, триллер, криминал, 2015] WEB-DLRip, dvo

Dracon

1070 | 75

1.46 ГБ

В этой теме нет новых непрочитанных сообщений. Глаза дракона / Dragon Eyes [боевик, триллер, драма, криминал, 2012] BDRemux 1080p, Mvo

salma3

9 | 3

18.11 ГБ

В этой теме нет новых непрочитанных сообщений. Я, Эрл и умирающая девушка / Me and Earl and the Dying Girl (Альфонсо Гомез-Рейон) [драма, комедия, 2015] HDRip, mvo [iTunes]

Dracon

143 | 6

1.45 ГБ

В этой теме нет новых непрочитанных сообщений. Девушка напротив / The Girl Next Door [Драма, криминал, триллер, 2007] BDRip 1080p, Dvo+Avo

salma3

19 | 5

11.91 ГБ


Начать новую тему Ответить на тему  [ 1 сообщение ] 




Для Мосгорсуда, Роскомнадзора и рекламодателей:: mosgorsud-torrent[собачка]yandex.ru