Торрент файл
скачать торрент магнет ссылка Добавлен: 01 мар 2012, 19:59
Размер: 1.39 ГБ
Сидеров: 1450
Личеров: 87
Автор

СообщениеДобавлено: 01 мар 2012, 19:59 

Не в сети
Супермодератор
Аватара пользователя
Дата регистрации:
11 апр 2010, 18:10
Спасибо: 5960 / 7
Сообщения: 56765
Девушка с татуировкой дракона / The Girl with the Dragon Tattoo


Слоган: «She's coming.»
Перевод: Профессиональный (полное дублирование) [лицензия]
Субтитры: отсутствуют
Формат: DVDRip-AVC, MKV, H.264, AC3

Страна: США, Германия, Швеция, Великобритания

Режиссер: Дэвид Финчер
Жанр: триллер, драма
Продолжительность: 02:31:42
Год выпуска: 2011

В ролях: Дэниэл Крэйг, Стеллан Скарсгард, Руни Мара, Робин Райт, Кристофер Пламмер, Джоэли Ричардсон, Эмбет Дэвидц, Юэль Чиннаман, Горан Вишнич, Джулиан Сэндс[/font][/size]

Описание: Сорок лет назад Харриет Вангер бесследно пропала на острове, принадлежащем могущественному клану Вангер. Ее тело так и не было найдено, но ее дядя убежден, что это убийство и что убийца является членом его собственной, тесно сплоченной и неблагополучной семьи. Он нанимает опального журналиста Микаэля Блумквиста и татуированную хакершу Лисбет Саландер для проведения расследования.



Видео: 1024x424@720x424 (2.40:1), 25.000 fps, AVC (х264) High@L4.1, ~ 835 Kbps, 0.109 bit/pixel
Аудио: 48 kHz, AC3 Dolby Digital, 3/2 (L,C,R,l,r) + LFE ch, ~448 kbps avg

C:\Documents and Settings\User\Мои документы\Devushka.S.Tatuirovkoi.Drakona.2011.Dc1.DVDRip-AVC.mkv
General
Complete name : C:\Documents and Settings\User\Мои документы\Devushka.S.Tatuirovkoi.Drakona.2011.Dc1.DVDRip-AVC.mkv
Format : Matroska
File size : 1.39 GiB
Duration : 2h 31mn
Overall bit rate : 1 309 Kbps
Movie name : The Girl with the Dragon Tattoo (2011)
Encoded date : UTC 2012-02-02 08:17:15
Writing application : mkvmerge v5.2.1 ('A Far Off Place') built on Jan2 2012 23:21:10
Writing library : libebml v1.2.3 + libmatroska v1.3.0
Video #1
ID : 1
Format : AVC
Format/Info : Advanced Video Codec
Format profile : High@L4.1
Format settings, CABAC : Yes
Format settings, ReFrames : 9 frames
Muxing mode : Container profile=Unknown@4.1
Codec ID : V_MPEG4/ISO/AVC
Duration : 2h 31mn
Bit rate : 835 Kbps
Width : 720 pixels
Height : 424 pixels
Display aspect ratio : 2.40:1
Frame rate : 25.000 fps
Resolution : 8 bits
Colorimetry : 4:2:0
Scan type : Progressive
Bits/(Pixel*Frame) : 0.109
Stream size : 906 MiB (64%)
Title :
Writing library : x264 core 120 r2146kMod bcd41db
Encoding settings : cabac=1 / ref=9 / deblock=1:-2:-1 / analyse=0x3:0x113 / me=umh / subme=9 / psy=1 / fade_compensate=0.00 / psy_rd=1.00:0.00 / mixed_ref=1 / me_range=32 / chroma_me=1 / trellis=1 / 8x8dct=1 / cqm=0 / deadzone=21,11 / fast_pskip=1 / chroma_qp_offset=-2 / threads=12 / sliced_threads=0 / nr=0 / decimate=1 / interlaced=0 / bluray_compat=0 / constrained_intra=0 / bframes=7 / b_pyramid=2 / b_adapt=2 / b_bias=0 / direct=1 / weightb=1 / open_gop=0 / weightp=2 / keyint=250 / keyint_min=25 / scenecut=40 / intra_refresh=0 / rc_lookahead=40 / rc=crf / mbtree=0 / crf=19.9550 / qcomp=0.65 / qpmin=0 / qpmax=69 / qpstep=4 / vbv_maxrate=8000 / vbv_bufsize=12000 / crf_max=0.0 / nal_hrd=none / ip_ratio=1.40 / pb_ratio=1.30 / aq=3:0.90
Matrix coefficients : BT.470-6 System B, BT.470-6 System G, BT.601-6 625, BT.1358 625, BT.1700 625 PAL, BT.1700 625 SECAM, IEC 61966-2-4 601
Audio #2
ID : 2
Format : AC-3
Format/Info : Audio Coding 3
Format_Settings_ModeExtension : CM (complete main)
Codec ID : A_AC3
Duration : 2h 31mn
Bit rate mode : Constant
Bit rate : 448 Kbps
Channel(s) : 6 channels
Channel positions : Front: L C R, Side: L R, LFE
Sampling rate : 48.0 KHz
Stream size : 486 MiB (34%)
Title : DUB
Language : Russian



















Поделиться:




реклама партнёра


Вернуться к началу
 Профиль Отправить личное сообщение  
 
   Похожие торренты   Автор   Торрент   Размер 
В этой теме нет новых непрочитанных сообщений. Девушка с татуировкой дракона / Man som hatar kvinnor [Триллер, драма, криминал, 2009] BDRemux 1080p, Dub

salma3

3 | 12

35.75 ГБ

В этой теме нет новых непрочитанных сообщений. [BurningAngel.com] Ivy Brooks (Cum On My Tattoo / 12.08.2017) [2017 г., Girl/Boy,Cum On My Tattoo,Big Tits,Punk Girl,Petite,Tattoo/Piercing,Natural Breasts,Dyed Hair, 1080p]

salma3

8 | 3

1.06 ГБ

В этой теме нет новых непрочитанных сообщений. Год Дракона / Year of the Dragon [боевик, триллер, драма, криминал, 1985] HDRip, Mvo

salma3

8 | 1

1.47 ГБ

В этой теме нет новых непрочитанных сообщений. Год Дракона / Year of the Dragon [боевик, триллер, драма, криминал, 1985] BDRip 720p, Mvo

salma3

11 | 10

11.27 ГБ

В этой теме нет новых непрочитанных сообщений. Глаза дракона / Dragon Eyes [боевик, триллер, драма, криминал, 2012] BDRemux 1080p, Mvo

salma3

9 | 3

18.11 ГБ

В этой теме нет новых непрочитанных сообщений. [BurningAngel.com] Lily Lane, Tank - Cum On My Tattoo (2017-10-19) [2017 г., Threesome, Big Tits, Goth Girl, Punk Girl, Tattoo/Piercing, Ink Queens, Dark Hair, All sex, Anal sex, 540p]

salma3

38 | 13

475.75 МБ

В этой теме нет новых непрочитанных сообщений. [BurningAngel.com] Cali Carter (Cum On My Tattoo - Cali Carter / 07.09.2017) [2017 г., Girl/Boy,Cum On My Tattoo,Big Tits,Fishnets,Tattoo/Piercing,Ass,Blonde,Doggy Style,Deep Throat, 1080p]

salma3

14 | 5

1.03 ГБ


Начать новую тему Ответить на тему  [ 1 сообщение ] 




Для Мосгорсуда, Роскомнадзора и рекламодателей:: mosgorsud-torrent[собачка]yandex.ru