Торрент файл
скачать торрент магнет ссылка Добавлен: 01 мар 2012, 19:58
Размер: 1.49 ГБ
Сидеров: 1597
Личеров: 230
Автор

СообщениеДобавлено: 01 мар 2012, 19:58 

Не в сети
Супермодератор
Аватара пользователя
Дата регистрации:
11 апр 2010, 18:10
Спасибо: 5803 / 7
Сообщения: 56779
[b]Сначала любовь, потом свадьба / Love, Wedding, Marriage[/b]


Перевод: Профессиональный (полное дублирование)
Субтитры: отсутствуют
Формат: HDRip-AVC, MKV, H.264, AC3

Страна:США

Режиссер: Дермот Малруни
Жанр: мелодрама, комедия
Продолжительность: 01:26:29
Год выпуска: 2011

В ролях: Мэнди Мур, Келлан Латс, Джеймс Бролин, Джейн Сеймур, Джессика Зор, Майкл Уэстон, Марта Жмуда, Ричард Рейд, Кристофер Ллойд, Алексис Денисоф.

Описание: Ева Далтон — успешный брачный агент, чья философия брака основывается на 30-ти летнем браке ее родителей, однако внезапно родители подают на развод, и это переворачивает мир Евы. Вместе с сестрой они решают во что бы то ни стало предотвратить развод родителей.



Видео: 1024x432 (2.35:1), 23.976 fps, AVC MPEG-4 High@L4.1 ~2078 kbps avg, 0.196 bit/pixel
Аудио: 48 kHz, AC3 Dolby Digital, 3/2 (L,C,R,l,r) + LFE ch, ~384 kbps avg

Рип от: S.I.D 'a[/url]


General
Unique ID: 243036336912960090248570338656205356213 (0xB6D7188BD1F256A7A63CB6B919EB3CB5)
Complete name: F:\Рипы от папы Карло\Love.wedding.marriage.2011.D.HDRip.mkv
Format: Matroska
Format version: Version 2
File size: 1.49 GiB
Duration: 1h 26mn
Overall bit rate: 2 460 Kbps
Movie name: Love.wedding.marriage.S.I.D
Encoded date: UTC 2012-02-09 14:22:27
Writing application: mkvmerge v5.0.1 ('Es ist Sommer') built on Oct 24 2011 19:45:06
Writing library: libebml v1.2.2 + libmatroska v1.3.0

Video
ID: 1
Format: AVC
Format/Info: Advanced Video Codec
Format profile: High@L4.1
Format settings, CABAC: Yes
Format settings, ReFrames: 8 frames
Muxing mode: Header stripping
Codec ID: V_MPEG4/ISO/AVC
Duration: 1h 26mn
Bit rate: 2 078 Kbps
Width: 1 024 pixels
Height: 432 pixels
Display aspect ratio: 2.35:1
Frame rate: 23.976 fps
Color space: YUV
Chroma subsampling: 4:2:0
Bit depth: 8 bits
Scan type: Progressive
Bits/(Pixel*Frame): 0.196
Stream size: 1.22 GiB (82%)
Writing library: x264 core 119 r2106 07efeb4
Encoding settings: cabac=1 / ref=8 / deblock=1:-1:-1 / analyse=0x3:0x111 / me=umh / subme=0 / psy=1 / psy_rd=1.00:0.10 / mixed_ref=1 / me_range=16 / chroma_me=1 / trellis=2 / 8x8dct=1 / cqm=0 / deadzone=21,11 / fast_pskip=1 / chroma_qp_offset=-4 / threads=6 / sliced_threads=0 / nr=0 / decimate=1 / interlaced=0 / bluray_compat=0 / constrained_intra=0 / bframes=3 / b_pyramid=2 / b_adapt=2 / b_bias=0 / direct=1 / weightb=1 / open_gop=0 / weightp=2 / keyint=250 / keyint_min=23 / scenecut=40 / intra_refresh=0 / rc=abr / mbtree=0 / bitrate=2078 / ratetol=1.0 / qcomp=0.60 / qpmin=0 / qpmax=69 / qpstep=4 / ip_ratio=1.40 / pb_ratio=1.30 / aq=1:0.10
Language: English
Default: Yes
Forced: No

Audio
ID: 2
Format: AC-3
Format/Info: Audio Coding 3
Mode extension: CM (complete main)
Muxing mode: Header stripping
Codec ID: A_AC3
Duration: 1h 26mn
Bit rate mode: Constant
Bit rate: 384 Kbps
Channel(s): 6 channels
Channel positions: Front: L C R, Side: L R, LFE
Sampling rate: 48.0 KHz
Bit depth: 16 bits
Compression mode: Lossy
Stream size: 238 MiB (16%)
Title: Dub
Language: Russian
Default: Yes
Forced: No








Поделиться:




реклама партнёра


Вернуться к началу
 Профиль Отправить личное сообщение  
 
   Похожие торренты   Автор   Торрент   Размер 
В этой теме нет новых непрочитанных сообщений. Любовь есть любовь / Love is love / Wang fu cheng long (Томми Леунг Ка-Шу / Tommy Ga-shu Leung) [1990г., Китай, мелодрама, комедия, HDRip] VO

Alfredovich

6 | 5

1.46 ГБ

В этой теме нет новых непрочитанных сообщений. Свадьба Бэтси / Betsy's Wedding [мелодрама, комедия, 1990] DVDRip, Avo

salma3

0 | 3

1.46 ГБ

В этой теме нет новых непрочитанных сообщений. Свадьба / A Wedding [Комедия, драма, мелодрама, 1978] HDTV 1080i, Mvo

salma3

21 | 17

8.86 ГБ

В этой теме нет новых непрочитанных сообщений. Свадьба на Рождество / A Christmas Wedding [Мелодрама,Комедия, 2006] DVDRip, Mvo

salma3

0 | 2

1.37 ГБ

В этой теме нет новых непрочитанных сообщений. Рождественская свадьба / A Christmas Wedding Date [мелодрама, комедия, 2012] DVDRip, Mvo

salma3

6 | 2

1.37 ГБ

В этой теме нет новых непрочитанных сообщений. Моя большая греческая свадьба 2 / My Big Fat Greek Wedding 2 [мелодрама, комедия, 2016] WEBRip, Mvo

salma3

495 | 20

1.37 ГБ

В этой теме нет новых непрочитанных сообщений. Моя большая греческая свадьба / My Big Fat Greek Wedding [мелодрама, комедия, 2001] BDRip, Dub

salma3

9 | 3

1.46 ГБ


Начать новую тему Ответить на тему  [ 1 сообщение ] 




Для Мосгорсуда, Роскомнадзора и рекламодателей:: mosgorsud-torrent[собачка]yandex.ru