Торрент файл
скачать торрент магнет ссылка Добавлен: 01 мар 2012, 19:56
Размер: 2.24 ГБ
Сидеров: 29
Личеров: 8
Автор

СообщениеДобавлено: 01 мар 2012, 19:56 

Не в сети
Супермодератор
Аватара пользователя
Дата регистрации:
11 апр 2010, 18:10
Спасибо: 5960 / 7
Сообщения: 56765
Голодный кролик атакует / Seeking Justice

Слоган: «Vengeance always has a price»
Перевод: Профессиональный (полное дублирование) [лицензия]
Субтитры: отсутствуют
Формат: HDRip-AVC, MKV, H.264, AC3
Страна: США
Режиссер: Роджер Дональдсон
Жанр: боевик, триллер, драма
Продолжительность: 01:45:01
Год выпуска: 2011

В ролях: Николас Кейдж, Дженьюэри Джонс, Дженнифер Карпентер, Гай Пирс, Айрон Э. Синглтон, Ксандер Беркли, Хэролд Перрино, Джо Крест, Моника Акоста, Дэвид Дженсен

Описание: Фильм сфокусируется на человеке, супруга которого становится жертвой жестокого преступления, и он внедряется в тайную организацию мстителей.



Видео: 1072x456 (2.35:1), 24.000 fps, AVC (х264) High@L4.1, ~ 2221 Kbps, 0.189 bit/pixel
Аудио#1: Русский: 48 kHz, AC3 Dolby Digital, 3/2 (L,C,R,l,r) + LFE ch, ~384 kbps [Профессиональный (полное дублирование)]
Аудио#2: Английский: 48 kHz, AC3 Dolby Digital, 3/2 (L,C,R,l,r) + LFE ch, ~448 kbps [Оригинал]

General
Unique ID: 222496746386112975921678833711858732235 (0xA763508C34C093FAB7C67844EB0A4CCB)
Complete name: C:\Documents and Settings\User\Мои документы\Golodnyj.Krolik.Atakuet.2011.DL1.HDRip.mkv
Format: Matroska
File size: 2.24 GiB
Duration: 1h 45mn
Overall bit rate: 3 052 Kbps
Movie name: -=POTROKS=-
Encoded date: UTC 2012-02-13 20:24:57
Writing application: mkvmerge v5.2.1 ('A Far Off Place') built on Feb6 2012 10:08:15
Writing library: libebml v1.2.3 + libmatroska v1.3.0

Video
ID: 1
Format: AVC
Format/Info: Advanced Video Codec
Format profile: High@L4.1
Format settings, CABAC: Yes
Format settings, ReFrames: 11 frames
Codec ID: V_MPEG4/ISO/AVC
Duration: 1h 45mn
Bit rate: 2 221 Kbps
Width: 1 072 pixels
Height: 456 pixels
Display aspect ratio: 2.35:1
Frame rate mode: Variable
Frame rate: 24.000 fps
Color space: YUV
Chroma subsampling: 4:2:0
Bit depth: 8 bits
Scan type: Progressive
Bits/(Pixel*Frame): 0.189
Stream size: 1.58 GiB (71%)
Title: Golodnyj.Krolik.Atakuet.2011.DL1.HDRip
Writing library: x264 core 116 r2019M 9cc407d
Encoding settings: cabac=1 / ref=12 / deblock=1:-2:-1 / analyse=0x3:0x133 / me=umh / subme=9 / psy=1 / psy_rd=0.40:0.20 / mixed_ref=1 / me_range=32 / chroma_me=1 / trellis=1 / 8x8dct=1 / cqm=0 / deadzone=21,11 / fast_pskip=0 / chroma_qp_offset=-3 / threads=8 / sliced_threads=0 / nr=0 / decimate=1 / interlaced=0 / bluray_compat=0 / constrained_intra=0 / bframes=8 / b_pyramid=1 / b_adapt=2 / b_bias=0 / direct=3 / weightb=1 / open_gop=0 / weightp=2 / keyint=240 / keyint_min=24 / scenecut=40 / intra_refresh=0 / rc_lookahead=40 / rc=2pass / mbtree=1 / bitrate=2221 / ratetol=1.0 / qcomp=0.60 / qpmin=10 / qpmax=51 / qpstep=4 / cplxblur=20.0 / qblur=0.5 / ip_ratio=1.37 / aq=1:1.20
Language: English

Audio #1
ID: 2
Format: AC-3
Format/Info: Audio Coding 3
Mode extension: CM (complete main)
Codec ID: A_AC3
Duration: 1h 45mn
Bit rate mode: Constant
Bit rate: 384 Kbps
Channel(s): 6 channels
Channel positions: Front: L C R, Side: L R, LFE
Sampling rate: 48.0 KHz
Bit depth: 16 bits
Compression mode: Lossy
Stream size: 288 MiB (13%)
Title: Dub@R5 [AC3, 5.1 ch., 384 kbps]
Language: Russian

Audio #2
ID: 3
Format: AC-3
Format/Info: Audio Coding 3
Mode extension: CM (complete main)
Codec ID: A_AC3
Duration: 1h 45mn
Bit rate mode: Constant
Bit rate: 448 Kbps
Channel(s): 6 channels
Channel positions: Front: L C R, Side: L R, LFE
Sampling rate: 48.0 KHz
Bit depth: 16 bits
Compression mode: Lossy
Stream size: 337 MiB (15%)
Title: Original [AC3, 5.1 ch., 448 kbps]
Language: English












Поделиться:




реклама партнёра


Вернуться к началу
 Профиль Отправить личное сообщение  
 
   Похожие торренты   Автор   Торрент   Размер 
В этой теме нет новых непрочитанных сообщений. Голодный кролик атакует / Seeking Justice [Боевик, триллер, драма, 2011] Blu-Ray, Dub [Лицензия]

salma3

40 | 14

12.94 ГБ

В этой теме нет новых непрочитанных сообщений. Белый кролик / Das weisse Kaninchen [триллер, драма, 2016] HDRip, Dvo

salma3

418 | 76

1.47 ГБ

В этой теме нет новых непрочитанных сообщений. Во имя справедливости / Out For Justice [Боевик, триллер, драма, криминал, 1991] BDRip 720p, Dub+Dvo+Mvo+Avo

salma3

16 | 8

5.5 ГБ

В этой теме нет новых непрочитанных сообщений. Кролик-убийца / Bunny the Killer Thing [ужасы, боевик, комедия, 2015] HDRip, Avo

salma3

0 | 0

1.46 ГБ

В этой теме нет новых непрочитанных сообщений. Перекресток смерти / True Justice [Боевик, триллер, драма, криминал, 2012] BDRip 720p, Dub [РЕН ТВ]

salma3

16 | 5

3.17 ГБ

В этой теме нет новых непрочитанных сообщений. Перекресток смерти / True Justice [Боевик, триллер, драма, криминал, 2012] BDRemux 1080p, Dub [РЕН ТВ]

salma3

5 | 8

22.22 ГБ

В этой теме нет новых непрочитанных сообщений. Марс атакует! / Mars Attacks! [фантастика, боевик, триллер, 1996] BDRip 720p, Dub+Dvo+Avo+Sub

salma3

51 | 12

4.37 ГБ


Начать новую тему Ответить на тему  [ 1 сообщение ] 




Для Мосгорсуда, Роскомнадзора и рекламодателей:: mosgorsud-torrent[собачка]yandex.ru