Торрент файл
скачать торрент магнет ссылка Добавлен: 01 мар 2012, 19:53
Размер: 1.44 ГБ
Сидеров: 183
Личеров: 5
Автор

СообщениеДобавлено: 01 мар 2012, 19:53 

Не в сети
Супермодератор
Аватара пользователя
Дата регистрации:
11 апр 2010, 18:10
Спасибо: 5801 / 7
Сообщения: 56779
Кориолан / Coriolanus


Слоган: «Даже зверь понимает кто ему друг»
Перевод: Профессиональный (полное дублирование) [лицензия]
Субтитры: отсутствуют
Формат: DVDRip-AVC, MKV, H.264, AC3

Страна: Великобритания

Режиссер: Рэйф Файнс
Жанр: триллер, драма
Продолжительность: 01:58:04

Год выпуска: 2011

В ролях: Джессика Честейн, Рэйф Файнс, Джерард Батлер, Брайан Кокс, Ванесса Редгрейв, Джеймс Несбитт, Ашраф Бархом, Лубна Азабаль, Драган Мичанович, Никки Амука-Бёрд

Описание: Сюжет картины основан на легенде о полководце Гнее Марцие Кориолане, жившем в Риме в пятом веке до нашей эры. Действие картины из Древнего Рима перенесено в наши дни, и вместо мечей главные герои «Кориолана» сжимают в руках автоматы.



Видео: 1024x458@720x458 (2.25:1), 25.000 fps, AVC (х264) High@L4.1, ~ 1333 Kbps, 0.162 bit/pixel
Аудио: 48 kHz, AC3 Dolby Digital, 3/2 (L,C,R,l,r) + LFE ch, ~384 kbps avg

General
Unique ID: 250565670556769226347169672974070372368 (0xBC81315B15647FE4AFA7E2BC323ED810)
Complete name: C:\Documents and Settings\User\Рабочий стол\Koriolan.2011.Dc1.DVDRip-AVC..mkv
Format: Matroska
File size: 1.44 GiB
Duration: 1h 58mn
Overall bit rate: 1 751 Kbps
Movie name: Coriolanus (2011) - Vaippp
Encoded date: UTC 2012-02-21 08:06:07
Writing application: mkvmerge v5.3.0 ('I could have danced') built on Feb9 2012 10:38:07
Writing library: libebml v1.2.3 + libmatroska v1.3.0

Video
ID: 1
Format: AVC
Format/Info: Advanced Video Codec
Format profile: High@L4.1
Format settings, CABAC: Yes
Format settings, ReFrames: 13 frames
Codec ID: V_MPEG4/ISO/AVC
Duration: 1h 58mn
Bit rate: 1 333 Kbps
Width: 720 pixels
Height: 458 pixels
Display aspect ratio: 2.25:1
Frame rate: 25.000 fps
Color space: YUV
Chroma subsampling: 4:2:0
Bit depth: 8 bits
Scan type: Progressive
Bits/(Pixel*Frame): 0.162
Stream size: 1.10 GiB (76%)
Writing library: x264 core 120 r2146kMod bcd41db
Encoding settings: cabac=1 / ref=13 / deblock=1:-2:-1 / analyse=0x3:0x113 / me=umh / subme=9 / psy=1 / fade_compensate=0.00 / psy_rd=0.95:0.07 / mixed_ref=1 / me_range=40 / chroma_me=1 / trellis=1 / 8x8dct=1 / cqm=0 / deadzone=21,11 / fast_pskip=1 / chroma_qp_offset=-3 / threads=12 / sliced_threads=0 / nr=0 / decimate=1 / interlaced=0 / bluray_compat=0 / constrained_intra=0 / bframes=9 / b_pyramid=2 / b_adapt=2 / b_bias=0 / direct=1 / weightb=1 / open_gop=0 / weightp=2 / keyint=250 / keyint_min=25 / scenecut=40 / intra_refresh=0 / rc_lookahead=40 / rc=crf / mbtree=0 / crf=18.2300 / qcomp=0.70 / qpmin=0 / qpmax=69 / qpstep=4 / vbv_maxrate=8000 / vbv_bufsize=12000 / crf_max=0.0 / nal_hrd=none / ip_ratio=1.40 / pb_ratio=1.30 / aq=1:0.70
Language: English
Matrix coefficients: BT.470-6 System B, BT.470-6 System G, BT.601-6 625, BT.1358 625, BT.1700 625 PAL, BT.1700 625 SECAM, IEC 61966-2-4 601

Audio
ID: 2
Format: AC-3
Format/Info: Audio Coding 3
Mode extension: CM (complete main)
Codec ID: A_AC3
Duration: 1h 58mn
Bit rate mode: Constant
Bit rate: 384 Kbps
Channel(s): 6 channels
Channel positions: Front: L C R, Side: L R, LFE
Sampling rate: 48.0 KHz
Bit depth: 16 bits
Compression mode: Lossy
Stream size: 324 MiB (22%)
Title: DUB
Language: Russian








Поделиться:




реклама партнёра


Вернуться к началу
 Профиль Отправить личное сообщение  
 
   Похожие торренты   Автор   Торрент   Размер 
В этой теме нет новых непрочитанных сообщений. Невидимая женщина / The Invisible Woman (Рэйф Файнс) [драма, мелодрама, биография, история, 2013] HDRip, Mvo

Dracon

6 | 2

2.04 ГБ

В этой теме нет новых непрочитанных сообщений. Гений Шекспира. Кориолан. Козья морда [триллер, драма, военный, 2014] HDRip

vairgin

6 | 3

1.22 ГБ

В этой теме нет новых непрочитанных сообщений. Убийца в социальной сети / The Craigslist Killer [триллер, драма, криминал, 2011] DVDRip, Dvo

salma3

2 | 2

695.27 МБ

В этой теме нет новых непрочитанных сообщений. Стажер / Kept [триллер, драма, 2001] DVDRip, Dvo

salma3

18 | 1

1.39 ГБ

В этой теме нет новых непрочитанных сообщений. Собственность / Possessions [триллер, драма, 2011] HDRip, Mvo [НТВ+]

salma3

3 | 3

1.37 ГБ

В этой теме нет новых непрочитанных сообщений. Бульвар страха / Rosewood Lane [триллер, 2011] DVDRip, Mvo

salma3

62 | 5

1.38 ГБ

В этой теме нет новых непрочитанных сообщений. Тысячелетний жук / The Millennium Bug [Ужасы, фантастика, триллер, 2011] DVDRip, Avo

salma3

54 | 9

1.47 ГБ


Начать новую тему Ответить на тему  [ 1 сообщение ] 




Для Мосгорсуда, Роскомнадзора и рекламодателей:: mosgorsud-torrent[собачка]yandex.ru