Торрент файл
скачать торрент магнет ссылка Добавлен: 01 мар 2012, 19:53
Размер: 2.28 ГБ
Сидеров: 372
Личеров: 28
Автор

СообщениеДобавлено: 01 мар 2012, 19:53 

Не в сети
Супермодератор
Аватара пользователя
Дата регистрации:
11 апр 2010, 18:10
Спасибо: 5960 / 7
Сообщения: 56765
Хранитель времени / Hugo

Перевод: Профессиональный (полное дублирование)
Cубтитры: английские
Формат: HDRip-AVC, MKV, H.264, AC3
Страна: США
Режиссер: Мартин Скорсезе
Жанр: драма, детектив, приключения, семейный
Продолжительность: 02:06:21
Год выпуска: 2012

В ролях: Хлоя Морец, Эмили Мортимер, Джуд Лоу, Хелен МакКрори, Кристофер Ли, Саша Барон Коэн, Бен Кингсли, Рэй Уинстоун, Ричард Гриффитс, Аса Баттерфилд

Описание: Действие разворачивается во Франции начала 30-х. Главный герой, мальчик-сирота Хьюго, проживающий в стенах парижского вокзала со своим дядей-алкоголиком, случайно находит таинственный механизм, созданный знаменитым фильммейкером Жоржем Мелье. Эта находка запускает цепную реакцию удивительных событий, которые в конечном итоге помогут Хьюго разгадать тайну его покойного отца.

Видео: 1024 x 576, 23.976 кадр/сек, AVC (х264), High@L4.1, ~ 1941 Kbps, 0.137 bit/pixel
Аудио №1: Русский: 48 kHz, AC3 Dolby Digital, 3/2 (L,C,R,l,r) + LFE ch, ~448 kbps [Профессиональный (полное дублирование)]
Аудио №2: Английский: 48 kHz, AC3 Dolby Digital, 2/0 (L,R) ch, ~192 kbps [Оригинал]

Hranitel.vremeni.2011.x264.HDRip.(AVC).mkv
Формат : Matroska
Версия формата : Version 2
Размер файла : 2,28 Гбайт
Продолжительность : 2 ч. 6 м.
Общий поток : 2583 Кбит/сек
Название фильма : -=POTROKS=-
Дата кодирования : UTC 2012-02-22 11:33:21
Программа кодирования : mkvmerge v4.8.0 ('I Got The...') сборка от May 24 2011 03:12:58
Библиотека кодирования : libebml v1.2.0 + libmatroska v1.1.0

Видео
Идентификатор : 1
Формат : AVC
Формат/Информация : Advanced Video Codec
Профиль формата : High@L4.1
Параметр CABAC формата : Да
Параметр ReFrames формата : 11 кадров
Параметры GOP формата : M=1, N=23
Режим смешивания : Header stripping
Идентификатор кодека : V_MPEG4/ISO/AVC
Продолжительность : 2 ч. 6 м.
Битрейт : 1941 Кбит/сек
Ширина : 1024 пикс.
Высота : 576 пикс.
Соотношение сторон : 16:9
Режим частоты кадров : Переменный
Частота кадров : 23,976 кадр/сек
Цветовое пространство : YUV
Подвыборка цветности : 4:2:0
Битовая глубина : 8 бит
Тип развёртки : Прогрессивная
Бит/(Пиксели*Кадры) : 0.137
Размер потока : 1,67 Гбайт (73%)
Заголовок : Hranitel.Vremeni.2011.Dt.HDRip.x264.potroks
Библиотека кодирования : x264 core 116 r2019M 9cc407d
Настройки программы : cabac=1 / ref=12 / deblock=1:-2:-1 / analyse=0x3:0x133 / me=umh / subme=9 / psy=1 / psy_rd=1.00:0.00 / mixed_ref=1 / me_range=40 / chroma_me=1 / trellis=1 / 8x8dct=1 / cqm=0 / deadzone=21,15 / fast_pskip=0 / chroma_qp_offset=-2 / threads=8 / sliced_threads=0 / nr=0 / decimate=1 / interlaced=0 / bluray_compat=0 / constrained_intra=0 / bframes=12 / b_pyramid=1 / b_adapt=2 / b_bias=0 / direct=3 / weightb=1 / open_gop=0 / weightp=2 / keyint=230 / keyint_min=23 / scenecut=40 / intra_refresh=0 / rc_lookahead=100 / rc=2pass / mbtree=1 / bitrate=1941 / ratetol=1.0 / qcomp=0.60 / qpmin=10 / qpmax=51 / qpstep=4 / cplxblur=20.0 / qblur=0.5 / ip_ratio=1.35 / aq=1:1.20
Язык : English

Аудио #1
Идентификатор : 2
Формат : AC-3
Формат/Информация : Audio Coding 3
Расширение режима : CM (complete main)
Режим смешивания : Header stripping
Идентификатор кодека : A_AC3
Продолжительность : 2 ч. 6 м.
Вид битрейта : Постоянный
Битрейт : 448 Кбит/сек
Каналы : 6 каналов
Расположение каналов : Front: L C R, Side: L R, LFE
Частота : 48,0 КГц
Битовая глубина : 16 бит
Метод сжатия : С потерями
Размер потока : 405 Мбайт (17%)
Заголовок : Rus dub
Язык : Russian

Аудио #2
Идентификатор : 3
Формат : AC-3
Формат/Информация : Audio Coding 3
Расширение режима : CM (complete main)
Режим смешивания : Header stripping
Идентификатор кодека : A_AC3
Продолжительность : 2 ч. 6 м.
Вид битрейта : Постоянный
Битрейт : 192 Кбит/сек
Каналы : 2 канала
Расположение каналов : Front: L R
Частота : 48,0 КГц
Битовая глубина : 16 бит
Метод сжатия : С потерями
Размер потока : 174 Мбайт (7%)
Заголовок : Original AC3, 2.0 ch., 192 kbps
Язык : English

Текст
Идентификатор : 4
Формат : UTF-8
Идентификатор кодека : S_TEXT/UTF8
Идентификатор кодека/Информация : UTF-8 Plain Text
Язык : English






Поделиться:




реклама партнёра


Вернуться к началу
 Профиль Отправить личное сообщение  
 
   Похожие торренты   Автор   Торрент   Размер 
В этой теме нет новых непрочитанных сообщений. Хранитель: Легенда об Омаре Хайяме / The Keeper: The Legend of Omar Khayyam [Драма, приключения, семейный, 2005] BDRip 720p, Mvo

salma3

121 | 39

4.16 ГБ

В этой теме нет новых непрочитанных сообщений. После работы / After Hours (Мартин Скорсезе / Martin Scorsese) [1985г., триллер, драма, комедия , WEB-DL 720p] DUB + 2MVO

Alfredovich

17 | 3

3.16 ГБ

В этой теме нет новых непрочитанных сообщений. Страж-лев / Львиная Гвардия / Хранитель Лев / The Lion Guard (мультсериал, комедия, мюзикл, семейный, приключения, 2016) SATRip

marya111

190 | 17

5.45 ГБ

В этой теме нет новых непрочитанных сообщений. 2+1 / Dеmаіn tоut соmmеnсе (Хьюго Желен / Hugo Gélin) [2016г., Франция, комедия, драма, семейный, BDRір] DUB

Alfredovich

470 | 141

1.41 ГБ

В этой теме нет новых непрочитанных сообщений. Позднее лето / Late Summer (Хенрик Мартин Дальсбаккен / Henrik Martin Dahlsbakken) [2016г., Франция, триллер, драма, детектив, HDRip] VO

Alfredovich

76 | 12

875.06 МБ

В этой теме нет новых непрочитанных сообщений. Судный день Дэна / Dannys dommedag (Мартин Барнвитц) [приключения, семейный, 2014] WEB-DLRip, dvo

Dracon

381 | 18

1.36 ГБ

В этой теме нет новых непрочитанных сообщений. Судный день Дэна / Dannys dommedag (Мартин Барнвитц) [приключения, семейный, 2014] WEB-DL 1080p, dvo

Dracon

17 | 5

2.79 ГБ


Начать новую тему Ответить на тему  [ 1 сообщение ] 




Для Мосгорсуда, Роскомнадзора и рекламодателей:: mosgorsud-torrent[собачка]yandex.ru