Торрент файл
скачать торрент магнет ссылка Добавлен: 01 мар 2012, 19:51
Размер: 744.81 МБ
Сидеров: 663
Личеров: 82
Автор

СообщениеДобавлено: 01 мар 2012, 19:51 

Не в сети
Супермодератор
Аватара пользователя
Дата регистрации:
11 апр 2010, 18:10
Спасибо: 5803 / 7
Сообщения: 56779
Такие разные близнецы / Jack and Jill


Перевод: Профессиональный (полное дублирование), cубтитры: отсутствуют
Формат: LowHDRip-AVC, MKV, H.264, AC3
Страна: США
Режиссер: Деннис Дуган
Жанр: комедия
Продолжительность: 01:30:49
Год выпуска: 2011

В ролях: Адам Сэндлер, Кэти Холмс, Аль Пачино, Роэн Чанд, Эудженио Дербез, Дэвид Спейд, Ник Свардсон, Тим Медоуз, Аллен Коверт

Описание: В центре сюжета — семейный мужчина по имени Джек, к которому на День Благодарения нагрянула в гости его взбалмошная сестра-близняшка Джилл. И ладно бы погостила да махнула ручкой, так ведь нет: Джилл прочно обосновалась в доме братца и, кажется, в ближайшее время не собирается уезжать.



Видео: 720 x 384 (1.87.1), 23.976 fps, AVC, х264 High@L4.1, ~ 1017 Kbps, 0.153 bit/pixel
Аудио: 48 kHz, MPEG Layer 3, 2 ch, ~128.00 kbps avg


Рип: jeenart

General
Unique ID: 178940835024806720513160257515698717919 (0x869EC0519429E466815852A67F3304DF)
Complete name: F:\Мои релизы\Все релизы 10\takye_raznye_blizneci_[tfile.ru].mkv
Format: Matroska
File size: 745 MiB
Duration: 1h 30mn
Overall bit rate: 1 147 Kbps
Encoded date: UTC 2012-02-22 20:50:41
Writing application: mkvmerge v4.6.0 ('Still Crazy After All These Years') сборка от Apr1 2011 21:01:49
Writing library: libebml v1.2.0 + libmatroska v1.1.0

Video
ID: 1
Format: AVC
Format/Info: Advanced Video Codec
Format profile: High@L4.1
Format settings, CABAC: Yes
Format settings, ReFrames: 4 frames
Format settings, GOP: M=2, N=32
Codec ID: V_MPEG4/ISO/AVC
Duration: 1h 30mn
Bit rate: 1 017 Kbps
Width: 720 pixels
Height: 384 pixels
Display aspect ratio: 1.875
Frame rate: 23.976 fps
Color space: YUV
Chroma subsampling: 4:2:0
Bit depth: 8 bits
Scan type: Progressive
Bits/(Pixel*Frame): 0.153
Stream size: 647 MiB (87%)
Writing library: x264 core 115 r1937 aa21558
Encoding settings: cabac=1 / ref=3 / deblock=1:-1:-1 / analyse=0x3:0x113 / me=hex / subme=7 / psy=1 / psy_rd=1.00:0.10 / mixed_ref=1 / me_range=16 / chroma_me=1 / trellis=1 / 8x8dct=1 / cqm=0 / deadzone=21,11 / fast_pskip=1 / chroma_qp_offset=-3 / threads=6 / sliced_threads=0 / nr=0 / decimate=1 / interlaced=0 / bluray_compat=0 / constrained_intra=0 / bframes=3 / b_pyramid=2 / b_adapt=1 / b_bias=0 / direct=3 / weightb=1 / open_gop=0 / weightp=2 / keyint=250 / keyint_min=23 / scenecut=40 / intra_refresh=0 / rc_lookahead=40 / rc=2pass / mbtree=1 / bitrate=1017 / ratetol=1.0 / qcomp=0.60 / qpmin=0 / qpmax=69 / qpstep=4 / cplxblur=20.0 / qblur=0.5 / ip_ratio=1.40 / aq=1:1.00

Audio
ID: 2
Format: MPEG Audio
Format version: Version 1
Format profile: Layer 3
Mode: Joint stereo
Mode extension: MS Stereo
Codec ID: A_MPEG/L3
Codec ID/Hint: MP3
Duration: 1h 30mn
Bit rate mode: Constant
Bit rate: 128 Kbps
Channel(s): 2 channels
Sampling rate: 48.0 KHz
Compression mode: Lossy
Stream size: 83.1 MiB (11%)
Writing library: LAME3.98r
Encoding settings: -m j -V 4 -q 2 -lowpass 17 -b 128
















Поделиться:




реклама партнёра


Вернуться к началу
 Профиль Отправить личное сообщение  
 
   Похожие торренты   Автор   Торрент   Размер 
В этой теме нет новых непрочитанных сообщений. Вот такие соседи / There Goes the Neighborhood [комедия, криминал, 1992] DVDRip, Dvo

salma3

66 | 3

1.37 ГБ

В этой теме нет новых непрочитанных сообщений. Jack Foster III - Apple Jack Magic [2014, Progressive Rock, MP3]

PriZraK

0 | 1

106.86 МБ

В этой теме нет новых непрочитанных сообщений. Близнецы / The Skeleton Twins (Крэйг Джонсон) [Драма, Комедия, 2014] HDRip, avo

Dracon

17 | 4

1.45 ГБ

В этой теме нет новых непрочитанных сообщений. Близнецы / The Skeleton Twins (Крэйг Джонсон) [Драма, Комедия, 2014] HDRip, Mvo [iTunes]

Dracon

4 | 3

1.37 ГБ

В этой теме нет новых непрочитанных сообщений. Близнецы / The Skeleton Twins (Крэйг Джонсон) [Драма, Комедия, 2014] BDRip 1080p, avo+sub

Dracon

0 | 2

12.62 ГБ

В этой теме нет новых непрочитанных сообщений. Близнецы / The Skeleton Twins (Крэйг Джонсон) [Драма, Комедия, 2014] BDRip 720p, avo+sub

Dracon

2 | 4

5.3 ГБ

В этой теме нет новых непрочитанных сообщений. Близнецы-убийцы / Seconds Apart [ужасы, триллер, 2011] HDRip, Mvo [Лицензия]

salma3

16 | 3

1.45 ГБ


Начать новую тему Ответить на тему  [ 1 сообщение ] 




Для Мосгорсуда, Роскомнадзора и рекламодателей:: mosgorsud-torrent[собачка]yandex.ru
cron