Торрент файл
скачать торрент магнет ссылка Добавлен: 01 мар 2012, 19:50
Размер: 1.45 ГБ
Сидеров: 1019
Личеров: 23
Автор

СообщениеДобавлено: 01 мар 2012, 19:50 

Не в сети
Супермодератор
Аватара пользователя
Дата регистрации:
11 апр 2010, 18:10
Спасибо: 5799 / 7
Сообщения: 56779
Хранитель времени / Hugo


Перевод: Профессиональный (полное дублирование), cубтитры: отсутствуют
Формат: HDRip-AVC, MKV, H.264, AC3
Страна: США
Режиссер: Мартин Скорсезе
Жанр: фантастика, приключения, семейный, драма, детектив
Продолжительность: 02:06:21
Год выпуска: 2011

В ролях: Хлоя Морец, Эмили Мортимер, Джуд Лоу, Хелен МакКрори, Кристофер Ли, Саша Барон Коэн, Бен Кингсли, Рэй Уинстоун, Ричард Гриффитс, Аса Баттерфилд

Описание: Приключения находчивого мальчика, который должен раскрыть секрет, оставленный его отцом, чтобы найти то место, которое сможет назвать своим домом.



Видео: 1024 x 568 (1.80:1), 23.976 fps, AVC (х264) High@L4.1, ~ 1648 Kbps, 0.104 bit/pixel
Аудио: 48 kHz, AC3 Dolby Digital, 3/2 (L,C,R,l,r) + LFE ch, ~ 384 kbps


Рип: jeenart

General
Unique ID: 209514937976655427504368004026015988362 (0x9D9F1BFA12CB6FEEB6DFA52DCF58BA8A)
Complete name: F:\Мои релизы\Все релизы 10\hranitelj_vremeni_[tfile.ru].mkv
Format: Matroska
File size: 1.45 GiB
Duration: 2h 6mn
Overall bit rate: 1 648 Kbps
Encoded date: UTC 2012-02-27 13:53:54
Writing application: mkvmerge v4.6.0 ('Still Crazy After All These Years') сборка от Apr1 2011 21:01:49
Writing library: libebml v1.2.0 + libmatroska v1.1.0

Video
ID: 1
Format: AVC
Format/Info: Advanced Video Codec
Format profile: High@L4.1
Format settings, CABAC: Yes
Format settings, ReFrames: 4 frames
Format settings, GOP: M=4, N=16
Codec ID: V_MPEG4/ISO/AVC
Duration: 2h 6mn
Bit rate: 1 454 Kbps
Width: 1 024 pixels
Height: 568 pixels
Display aspect ratio: 16:9
Frame rate: 23.976 fps
Color space: YUV
Chroma subsampling: 4:2:0
Bit depth: 8 bits
Scan type: Progressive
Bits/(Pixel*Frame): 0.104
Stream size: 1.26 GiB (86%)
Writing library: x264 core 115 r1937 aa21558
Encoding settings: cabac=1 / ref=3 / deblock=1:-1:-1 / analyse=0x3:0x113 / me=hex / subme=7 / psy=1 / psy_rd=1.00:0.10 / mixed_ref=1 / me_range=16 / chroma_me=1 / trellis=1 / 8x8dct=1 / cqm=0 / deadzone=21,11 / fast_pskip=1 / chroma_qp_offset=-3 / threads=6 / sliced_threads=0 / nr=0 / decimate=1 / interlaced=0 / bluray_compat=0 / constrained_intra=0 / bframes=3 / b_pyramid=2 / b_adapt=1 / b_bias=0 / direct=3 / weightb=1 / open_gop=0 / weightp=2 / keyint=250 / keyint_min=23 / scenecut=40 / intra_refresh=0 / rc_lookahead=40 / rc=2pass / mbtree=1 / bitrate=1454 / ratetol=1.0 / qcomp=0.60 / qpmin=0 / qpmax=69 / qpstep=4 / cplxblur=20.0 / qblur=0.5 / ip_ratio=1.40 / aq=1:1.00

Audio
ID : 2
Format : AC-3
Format/Info : Audio Coding 3
Mode extension : CM (complete main)
Codec ID : A_AC3
Duration : 1h 35mn
Bit rate mode : Constant
Bit rate : 384 Kbps
Channel(s) : 6 channels
Channel positions : Front: L C R, Side: L R, LFE
Sampling rate : 48.0 KHz
Bit depth : 16 bits
Compression mode : Lossy
Stream size : 263 MiB (18%)













Поделиться:




реклама партнёра


Вернуться к началу
 Профиль Отправить личное сообщение  
 
   Похожие торренты   Автор   Торрент   Размер 
В этой теме нет новых непрочитанных сообщений. После работы / After Hours (Мартин Скорсезе / Martin Scorsese) [1985г., триллер, драма, комедия , WEB-DL 720p] DUB + 2MVO

Alfredovich

17 | 3

3.16 ГБ

В этой теме нет новых непрочитанных сообщений. Страж-лев / Львиная Гвардия / Хранитель Лев / The Lion Guard (мультсериал, комедия, мюзикл, семейный, приключения, 2016) SATRip

marya111

0 | 0

5.45 ГБ

В этой теме нет новых непрочитанных сообщений. Позднее лето / Late Summer (Хенрик Мартин Дальсбаккен / Henrik Martin Dahlsbakken) [2016г., Франция, триллер, драма, детектив, HDRip] VO

Alfredovich

77 | 12

875.06 МБ

В этой теме нет новых непрочитанных сообщений. Дом крокодилов / Das Haus der Krokodile [Детектив, приключения, семейный, 2012] HDRip, Mvo

salma3

68 | 8

2.04 ГБ

В этой теме нет новых непрочитанных сообщений. Дом крокодилов / Das Haus der Krokodile [Детектив, приключения, семейный, 2012] HDRip-AVC, Mvo+Sub

salma3

52 | 5

2.18 ГБ

В этой теме нет новых непрочитанных сообщений. Судный день Дэна / Dannys dommedag (Мартин Барнвитц) [приключения, семейный, 2014] WEB-DL 1080p, dvo

Dracon

17 | 5

2.79 ГБ

В этой теме нет новых непрочитанных сообщений. Судный день Дэна / Dannys dommedag (Мартин Барнвитц) [приключения, семейный, 2014] WEB-DLRip, dvo

Dracon

377 | 17

1.36 ГБ


Начать новую тему Ответить на тему  [ 1 сообщение ] 




Для Мосгорсуда, Роскомнадзора и рекламодателей:: mosgorsud-torrent[собачка]yandex.ru