Торрент файл
скачать торрент магнет ссылка Добавлен: 01 мар 2012, 19:50
Размер: 2.04 ГБ
Сидеров: 640
Личеров: 73
Автор

СообщениеДобавлено: 01 мар 2012, 19:50 

Не в сети
Супермодератор
Аватара пользователя
Дата регистрации:
11 апр 2010, 18:10
Спасибо: 5802 / 7
Сообщения: 56779
Другой мир: Пробуждение / Underworld: Awakening


Слоган: «Месть проснулась»
Перевод: Профессиональный (полное дублирование) [лицензия]
Субтитры: отсутствуют
Формат: DVDRip-AVC, MKV, H.264, AC3

Страна: США

Режиссер: Манс Марлинд, Бьёрн Стейн
Жанр: ужасы, фэнтези, боевик
Продолжительность: 01:25:10
Год выпуска: 2012

В ролях: Кейт Бекинсейл, Стивен Ри, Майкл Или, Тео Джеймс, Индия Айли, Чарльз Дэнс, Кристен Холден-Рид, Сандрин Холт, Ричард Цетрон, Сэнни Ван Хетерен

Описание: Через 12 лет в состоянии, близком к коматозному, Селин узнает о существовании родной дочери Ниссы — гибрида вампира и ликана. И Селин необходимо помешать БиоКом создать суперликанов, которые убьют их всех.



Видео: 1024 x 432 (2.40:1), 25.000 fps, AVC (х264) High@L4.1, ~ 2972 Kbps, 0.269 bit/pixel
Аудио: 48 kHz, AC3 Dolby Digital, 3/2 (L,C,R,l,r) + LFE ch, ~ 448 kbps

General
Unique ID: 175502419534659553576010601111355217816 (0x84088958AE7223C689E9CD02402D579
Complete name: C:\Documents and Settings\User\Мои документы\Drugoy.mir.probuzhdenie.2011.Dc1.DVDRip-AVC.mkv
Format: Matroska
File size: 2.04 GiB
Duration: 1h 25mn
Overall bit rate: 3 422 Kbps
Encoded date: UTC 2012-02-16 16:18:49
Writing application: mkvmerge v5.0.1 ('Es ist Sommer') built on Oct9 2011 11:55:43
Writing library: libebml v1.2.2 + libmatroska v1.3.0

Video
ID: 1
Format: AVC
Format/Info: Advanced Video Codec
Format profile: High@L4.1
Format settings, CABAC: Yes
Format settings, ReFrames: 4 frames
Codec ID: V_MPEG4/ISO/AVC
Duration: 1h 25mn
Bit rate: 2 972 Kbps
Width: 1 024 pixels
Height: 432 pixels
Display aspect ratio: 2.40:1
Original display aspect ratio: 2.40:1
Frame rate: 25.000 fps
Color space: YUV
Chroma subsampling: 4:2:0
Bit depth: 8 bits
Scan type: Progressive
Bits/(Pixel*Frame): 0.269
Stream size: 1.73 GiB (85%)
Writing library: x264 core 119 r2106 07efeb4
Encoding settings: cabac=1 / ref=4 / deblock=1:-1:0 / analyse=0x3:0x113 / me=umh / subme=10 / psy=1 / psy_rd=1.00:0.10 / mixed_ref=1 / me_range=32 / chroma_me=1 / trellis=2 / 8x8dct=1 / cqm=0 / deadzone=21,11 / fast_pskip=0 / chroma_qp_offset=-3 / threads=12 / sliced_threads=0 / nr=0 / decimate=1 / interlaced=0 / bluray_compat=0 / constrained_intra=0 / bframes=8 / b_pyramid=2 / b_adapt=2 / b_bias=0 / direct=3 / weightb=1 / open_gop=0 / weightp=2 / keyint=250 / keyint_min=23 / scenecut=40 / intra_refresh=0 / rc_lookahead=150 / rc=2pass / mbtree=1 / bitrate=2972 / ratetol=1.0 / qcomp=0.60 / qpmin=0 / qpmax=69 / qpstep=4 / cplxblur=20.0 / qblur=0.5 / ip_ratio=1.40 / aq=1:1.00

Audio
ID: 2
Format: AC-3
Format/Info: Audio Coding 3
Mode extension: CM (complete main)
Codec ID: A_AC3
Duration: 1h 25mn
Bit rate mode: Constant
Bit rate: 448 Kbps
Channel(s): 6 channels
Channel positions: Front: L C R, Side: L R, LFE
Sampling rate: 48.0 KHz
Bit depth: 16 bits
Compression mode: Lossy
Stream size: 273 MiB (13%)








Поделиться:




реклама партнёра


Вернуться к началу
 Профиль Отправить личное сообщение  
 
   Похожие торренты   Автор   Торрент   Размер 
В этой теме нет новых непрочитанных сообщений. Другой мир: Пробуждение / Underworld: Awakening [ужасы, фэнтези, боевик, 2012] BDRip, Avo [Андрей Гаврилов]

salma3

0 | 4

1.45 ГБ

В этой теме нет новых непрочитанных сообщений. Другой мир: Войны крови / Underworld: Blood Wars [ужасы, боевик, 2016] CamRip, Dub

salma3

1477 | 237

1.37 ГБ

В этой теме нет новых непрочитанных сообщений. Звёздные войны: Пробуждение силы / Star Wars: The Force Awakens [Фантастика, фэнтези, боевик, приключения, 2015] HDRip, Dub [чистый звук]

salma3

534 | 15

1.46 ГБ

В этой теме нет новых непрочитанных сообщений. Звёздные войны: Пробуждение силы / Star Wars: Episode VII - The Force Awakens (фантастика, фэнтези, боевик, приключения, 2015) BDRip-AVC от HELLYWOOD | Лицензия

marya111

337 | 27

2.91 ГБ

В этой теме нет новых непрочитанных сообщений. Звёздные войны: Пробуждение силы / Star Wars: Episode VII - The Force Awakens [фантастика, фэнтези, боевик, приключения, 2015] BDRip 1080p, Dub [чистый звук]

salma3

1974 | 68

15.83 ГБ

В этой теме нет новых непрочитанных сообщений. Звёздные войны: Пробуждение силы / Star Wars: Episode VII - The Force Awakens (фантастика, фэнтези, боевик, приключения, 2015) BDRip 720p от HELLYWOOD | Лицензия, P, A

marya111

56 | 16

7.95 ГБ

В этой теме нет новых непрочитанных сообщений. Звёздные войны: Пробуждение силы / Star Wars: Episode VII - The Force Awakens ( Фантастика, Фэнтези, Боевик, Приключения, 2015) BDRip 1080p от Ash61 | 3D-Video | halfOU

marya111

269 | 43

15.34 ГБ


Начать новую тему Ответить на тему  [ 1 сообщение ] 




Для Мосгорсуда, Роскомнадзора и рекламодателей:: mosgorsud-torrent[собачка]yandex.ru