Торрент файл
скачать торрент магнет ссылка Добавлен: 01 мар 2012, 19:49
Размер: 1.47 ГБ
Сидеров: 898
Личеров: 147
Автор

СообщениеДобавлено: 01 мар 2012, 19:49 

Не в сети
Супермодератор
Аватара пользователя
Дата регистрации:
11 апр 2010, 18:10
Спасибо: 5801 / 7
Сообщения: 56779
[b]Очень опасная штучка / One for the Money[/b]


Перевод: Профессиональный (полное дублирование)
Субтитры: отсутствуют
Формат: HDRip-AVC, MKV, H.264, AC3

Страна: США

Режиссер: Джули Энн Робинсон
Жанр: комедия
Продолжительность: 01:31:18
Год выпуска: 2012

В ролях: Кэтрин Хайгл, Джейсон О’Мара, Дэниел Сунджата, Джон Легуизамо, Шерри Шеперд, Дебби Рейнолдс, Дебра Монк, Нат Муни, Адам Пол, Фишер Стивенс.

Описание: Продавщица нижнего белья в отставке Стэфани Плам нашла новую работу. Отныне она охотится на мужчин, за поимку которых назначена солидная награда. Ее главное оружие — женская интуиция и модные туфли на высоких каблуках. Но даже они бессильны перед главной целью — мужчиной ее мечты. Он красив, остроумен и смертельно опасен, и при этом он её бывший.



Видео: 1024x432 (2.35:1), 23.976 fps, AVC MPEG-4 High@L4.1 ~1949 kbps avg, 0.184 bit/pixel
Аудио: 48 kHz, AC3 Dolby Digital, 3/2 (L,C,R,l,r) + LFE ch, ~384 kbps avg

Рип от: S.I.D 'a


General
Unique ID: 217549723868645577788301045535104069223 (0xA3AA8D81A028464C946BB219C0886E67)
Complete name: F:\Рипы от S.I.D' а\One.for.the.Money.2012.D.HDRip.mkv
Format: Matroska
Format version: Version 2
File size: 1.47 GiB
Duration: 1h 31mn
Overall bit rate: 2 302 Kbps
Movie name: One.for.the.Money.S.I.D
Encoded date: UTC 2012-02-28 23:22:24
Writing application: mkvmerge v5.0.1 ('Es ist Sommer') built on Oct 24 2011 19:45:06
Writing library: libebml v1.2.2 + libmatroska v1.3.0

Video
ID: 1
Format: AVC
Format/Info: Advanced Video Codec
Format profile: High@L4.1
Format settings, CABAC: Yes
Format settings, ReFrames: 8 frames
Muxing mode: Header stripping
Codec ID: V_MPEG4/ISO/AVC
Duration: 1h 31mn
Bit rate: 1 949 Kbps
Width: 1 024 pixels
Height: 432 pixels
Display aspect ratio: 2.35:1
Frame rate: 23.976 fps
Color space: YUV
Chroma subsampling: 4:2:0
Bit depth: 8 bits
Scan type: Progressive
Bits/(Pixel*Frame): 0.184
Stream size: 1.19 GiB (81%)
Writing library: x264 core 119 r2106 07efeb4
Encoding settings: cabac=1 / ref=8 / deblock=1:-1:-1 / analyse=0x3:0x111 / me=hex / subme=7 / psy=1 / psy_rd=1.00:0.10 / mixed_ref=1 / me_range=16 / chroma_me=1 / trellis=2 / 8x8dct=1 / cqm=0 / deadzone=21,11 / fast_pskip=1 / chroma_qp_offset=-3 / threads=6 / sliced_threads=0 / nr=0 / decimate=1 / interlaced=0 / bluray_compat=0 / constrained_intra=0 / bframes=5 / b_pyramid=2 / b_adapt=2 / b_bias=0 / direct=1 / weightb=1 / open_gop=0 / weightp=2 / keyint=250 / keyint_min=23 / scenecut=40 / intra_refresh=0 / rc_lookahead=40 / rc=abr / mbtree=1 / bitrate=1949 / ratetol=1.0 / qcomp=0.60 / qpmin=0 / qpmax=69 / qpstep=4 / ip_ratio=1.40 / aq=1:0.10
Language: English
Default: Yes
Forced: No

Audio
ID: 2
Format: AC-3
Format/Info: Audio Coding 3
Mode extension: CM (complete main)
Muxing mode: Header stripping
Codec ID: A_AC3
Duration: 1h 31mn
Bit rate mode: Constant
Bit rate: 384 Kbps
Channel(s): 6 channels
Channel positions: Front: L C R, Side: L R, LFE
Sampling rate: 48.0 KHz
Bit depth: 16 bits
Compression mode: Lossy
Stream size: 251 MiB (17%)
Title: Dub
Language: Russian
Default: Yes
Forced: No








Поделиться:




реклама партнёра


Вернуться к началу
 Профиль Отправить личное сообщение  
 
   Похожие торренты   Автор   Торрент   Размер 
В этой теме нет новых непрочитанных сообщений. Очень быстро получила сперму на лицо (2012) HDRip

Max79

175 | 5

246.06 МБ

В этой теме нет новых непрочитанных сообщений. Опасная иллюзия / Влюбиться до смерти / The Necessary Death of Charlie Countryman [боевик, мелодрама, комедия, 2013] HDRip, dub [Чистый звук]

Dracon

749 | 8

1.37 ГБ

В этой теме нет новых непрочитанных сообщений. Очень паранормальное кино / Paranormal Whacktivity [Ужасы, комедия, 2013] HDRip, Dub [Лицензия]

Dracon

184 | 11

1.46 ГБ

В этой теме нет новых непрочитанных сообщений. Дикая штучка / Something Wild [комедия, 1986] BDRip 720p, Dvo+Avo+Sub

salma3

69 | 22

4.74 ГБ

В этой теме нет новых непрочитанных сообщений. Модная штучка / After the Ball (Шон Гэррити) [Комедия, 2015] WEB-DLRip, Dub [iTunes]

Dracon

61 | 1

1.46 ГБ

В этой теме нет новых непрочитанных сообщений. Модная штучка / After the Ball (Шон Гэррити) [Комедия, 2015] WEB-DL 720p, Dub [iTunes]

Dracon

152 | 10

3.02 ГБ

В этой теме нет новых непрочитанных сообщений. Александр и ужасный, кошмарный, нехороший, очень плохой день / Alexander and the Terrible, Horrible, No Good, Very Bad Day (Мигель Артета) [Комедия, Семейный, 2014] HDRip, Dub [iTunes]

Dracon

2 | 2

1.37 ГБ


Начать новую тему Ответить на тему  [ 1 сообщение ] 




Для Мосгорсуда, Роскомнадзора и рекламодателей:: mosgorsud-torrent[собачка]yandex.ru