Торрент файл
скачать торрент магнет ссылка Добавлен: 01 мар 2012, 19:49
Размер: 2.05 ГБ
Сидеров: 1354
Личеров: 219
Автор

СообщениеДобавлено: 01 мар 2012, 19:49 

Не в сети
Супермодератор
Аватара пользователя
Дата регистрации:
11 апр 2010, 18:10
Спасибо: 5966 / 7
Сообщения: 56761
Очень опасная штучка / One for the Money


Слоган: «Когда мужчины не понимают по-хорошему»
Перевод: Профессиональный (полное дублирование) [лицензия]
Субтитры: Русские
Формат: HDRip-AVC, MKV, H.264, AC3

Страна: США

Режиссер: Джули Энн Робинсон
Жанр: комедия
Продолжительность: 01:27:35

Год выпуска: 2012

В ролях: Кэтрин Хайгл, Джейсон О’Мара, Дэниел Сунджата, Джон Легуизамо, Шерри Шеперд, Дебби Рейнолдс, Дебра Монк, Нат Муни, Адам Пол, Фишер Стивенс

Описание: Продавщица нижнего белья в отставке Стэфани Плам нашла новую работу. Отныне она охотится на мужчин, за поимку которых назначена солидная награда. Ее главное оружие — женская интуиция и модные туфли на высоких каблуках. Но даже они бессильны перед главной целью — мужчиной ее мечты. Он красив, остроумен и смертельно опасен, и при этом он её бывший.



Видео: 1040 x 432 (2.35:1), 23.976 fps, AVC (х264) High@L4.1, ~ 2322 Kbps, 0.216 bit/pixel
Аудио#1: Русский: 48 kHz, AC3 Dolby Digital, 3/2 (L,C,R,l,r) + LFE ch, ~ 448 kbps [Профессиональный (полное дублирование)]
Аудио#2: Английский: 48 kHz, AC3 Dolby Digital, 3/2 (L,C,R,l,r) + LFE ch, ~ 448 kbps [Оригинал]



General
Unique ID: 205219657952925360264943465492533453619 (0x9A63DE52452F9DF1BD15D50D516BA333)
Complete name: C:\Documents and Settings\User\Мои документы\Ochen.Opasnaya.Shtuchka.2012.Dc1.HDRip-AVC.mkv
Format: Matroska
File size: 2.05 GiB
Duration: 1h 31mn
Overall bit rate: 3 217 Kbps
Encoded date: UTC 2012-02-29 06:25:23
Writing application: mkvmerge v2.9.8 ('C'est le bon') built on Aug 13 2009 12:49:06
Writing library: libebml v0.7.7 + libmatroska v0.8.1

Video
ID: 1
Format: AVC
Format/Info: Advanced Video Codec
Format profile: High@L4.1
Format settings, CABAC: Yes
Format settings, ReFrames: 9 frames
Codec ID: V_MPEG4/ISO/AVC
Duration: 1h 31mn
Bit rate: 2 322 Kbps
Width: 1 040 pixels
Height: 432 pixels
Display aspect ratio: 2.35:1
Original display aspect ratio: 2.35:1
Frame rate mode: Variable
Frame rate: 23.976 fps
Color space: YUV
Chroma subsampling: 4:2:0
Bit depth: 8 bits
Scan type: Progressive
Bits/(Pixel*Frame): 0.216
Stream size: 1.44 GiB (70%)
Title: Ochen'.Opasnaya.Shtuchka.2012.D.BDRip.x264.potroks
Writing library: x264 core 116 r2019M 9cc407d
Encoding settings: cabac=1 / ref=10 / deblock=1:-2:-1 / analyse=0x3:0x133 / me=umh / subme=9 / psy=1 / psy_rd=1.00:0.00 / mixed_ref=1 / me_range=42 / chroma_me=1 / trellis=1 / 8x8dct=1 / cqm=0 / deadzone=21,13 / fast_pskip=0 / chroma_qp_offset=-2 / threads=8 / sliced_threads=0 / nr=0 / decimate=1 / interlaced=0 / bluray_compat=0 / constrained_intra=0 / bframes=12 / b_pyramid=1 / b_adapt=2 / b_bias=0 / direct=3 / weightb=1 / open_gop=0 / weightp=2 / keyint=230 / keyint_min=23 / scenecut=40 / intra_refresh=0 / rc_lookahead=100 / rc=2pass / mbtree=1 / bitrate=2322 / ratetol=1.0 / qcomp=0.60 / qpmin=10 / qpmax=51 / qpstep=4 / cplxblur=20.0 / qblur=0.5 / ip_ratio=1.40 / aq=1:1.20
Language: English

Audio #1
ID: 2
Format: AC-3
Format/Info: Audio Coding 3
Mode extension: CM (complete main)
Codec ID: A_AC3
Duration: 1h 31mn
Bit rate mode: Constant
Bit rate: 448 Kbps
Channel(s): 6 channels
Channel positions: Front: L C R, Side: L R, LFE
Sampling rate: 48.0 KHz
Bit depth: 16 bits
Compression mode: Lossy
Stream size: 293 MiB (14%)
Title: Dub AC3, 5.1 ch., 448 kbps
Language: Russian

Audio #2
ID: 3
Format: AC-3
Format/Info: Audio Coding 3
Mode extension: CM (complete main)
Codec ID: A_AC3
Duration: 1h 31mn
Bit rate mode: Constant
Bit rate: 448 Kbps
Channel(s): 6 channels
Channel positions: Front: L C R, Side: L R, LFE
Sampling rate: 48.0 KHz
Bit depth: 16 bits
Compression mode: Lossy
Stream size: 293 MiB (14%)
Title: Original AC3, 5.1 ch., 448 kbps
Language: English

Text
ID: 4
Format: UTF-8
Codec ID: S_TEXT/UTF8
Codec ID/Info: UTF-8 Plain Text
Language: Russian








Поделиться:




реклама партнёра


Вернуться к началу
 Профиль Отправить личное сообщение  
 
   Похожие торренты   Автор   Торрент   Размер 
В этой теме нет новых непрочитанных сообщений. Там, где деньги / Where the Money Is [драма, комедия, криминал, 2000] HDRip, Dvo

salma3

71 | 33

1.45 ГБ

В этой теме нет новых непрочитанных сообщений. Очень страшное кино 3 / Scary Movie 3 [комедия, 2003] HDRip-AVC, Dub

salma3

38 | 17

741.65 МБ

В этой теме нет новых непрочитанных сообщений. Очень противная свадьба / A Very Sordid Wedding [комедия, 2017] HDRip, Mvo

salma3

51 | 11

1.46 ГБ

В этой теме нет новых непрочитанных сообщений. Очень противная свадьба / A Very Sordid Wedding [комедия, 2017] HDRip, Mvo

salma3

17 | 35

1.37 ГБ

В этой теме нет новых непрочитанных сообщений. Очень страшное кино 2 / Scary Movie 2 [комедия, 2001] HDRip-AVC, Dub

salma3

0 | 0

741.74 МБ

В этой теме нет новых непрочитанных сообщений. Очень плохие девчонки / Rough Night [Комедия, приключения, 2017] HDRip, Dub [КПК] [iTunes]

salma3

40 | 5

383.58 МБ

В этой теме нет новых непрочитанных сообщений. Дикая штучка / Something Wild [комедия, 1986] BDRip 720p, Dvo+Avo+Sub

salma3

69 | 22

4.74 ГБ


Начать новую тему Ответить на тему  [ 1 сообщение ] 




Для Мосгорсуда, Роскомнадзора и рекламодателей:: mosgorsud-torrent[собачка]yandex.ru