Торрент файл
скачать торрент магнет ссылка Добавлен: 04 фев 2012, 15:47
Размер: 1.37 ГБ
Сидеров: 19
Личеров: 3
Статус: (Aleksandr.ru)
Автор

СообщениеДобавлено: 04 фев 2012, 15:47 

Не в сети
Супермодератор
Аватара пользователя
Дата регистрации:
22 май 2010, 12:40
Спасибо: 2027 / 98
Сообщения: 2963
Откуда: Н.Новгород

Карты, деньги и порнушка
Lock, Stock and a fistful of Jack and Jills

Страна: Великобритания, Бельгия
Жанр:Драма, комедия
Год выпуска: 2000
Продолжительность: 01:40:54
Перевод: Профессиональный (многоголосый, закадровый)
Субтитры: Нет

Режиссёр: Ник Джонс / Nick Jones, Рудольф Местдаг / Rudolf Mestdag, Дэвид Таккер / David Tucker
В ролях: Ральф Браун, Дэниэл Кэлтэджироун, Скотт Маслен, Шон Паркс, Дел Сайннотт, Кристофер Эдэмсон, Ник Бримбл

Описание фильма:
Джэйми, Бэйкон, Бледный и Ли — верные друзья и непревзойденные аферисты. Они всегда готовы провернуть самую невероятную махинацию, чтобы заработать пару фунтов.



Качество: DVDRip
Формат: AVI
Видео: Xvid 704x448 25.00fps 1482Kbps 0.188 bit/pixel
Аудио: Dolby AC3 48000Hz 6ch 448Kbps












Format: AVI
Format/Info: Audio Video Interleave
File size: 1.37 GiB
Duration: 1h 40mn
Overall bit rate: 1 940 Kbps
Writing application: VirtualDubMod 1.5.10.2 (build 2540/release)
Writing library: VirtualDubMod build 2540/release

Video
ID: 0
Format: MPEG-4 Visual
Format profile: Advanced Simple@L5
Format settings, BVOP: 1
Format settings, QPel: No
Format settings, GMC: No warppoints
Format settings, Matrix: Default (MPEG)
Muxing mode: Packed bitstream
Codec ID: XVID
Codec ID/Hint: XviD
Duration: 1h 40mn
Bit rate: 1 482 Kbps
Width: 704 pixels
Height: 448 pixels
Display aspect ratio: 1.571
Frame rate: 25.000 fps
Color space: YUV
Chroma subsampling: 4:2:0
Bit depth: 8 bits
Scan type: Progressive
Compression mode: Lossy
Bits/(Pixel*Frame): 0.188
Stream size: 1.04 GiB (76%)
Writing library: XviD 1.2.0.dev47 (UTC 2006-11-01)

Audio
ID: 1
Format: AC-3
Format/Info: Audio Coding 3
Mode extension: CM (complete main)
Codec ID: 2000
Duration: 1h 40mn
Bit rate mode: Constant
Bit rate: 448 Kbps
Channel(s): 6 channels
Channel positions: Front: L C R, Side: L R, LFE
Sampling rate: 48.0 KHz
Bit depth: 16 bits
Compression mode: Lossy
Stream size: 323 MiB (23%)
Alignment: Split accross interleaves
Interleave, duration: 40 ms (1.00 video frame)
Interleave, preload duration: 500 ms




реклама партнёра


Вернуться к началу
 Профиль Отправить личное сообщение  
 
   Похожие торренты   Автор   Торрент   Размер 
В этой теме нет новых непрочитанных сообщений. Карты, деньги, два ствола / Lock, Stock and Two Smoking Barrels [криминал, комедия, 1998] HDRip, Mvo

salma3

845 | 27

1.45 ГБ

В этой теме нет новых непрочитанных сообщений. Карты, деньги, два ствола / Lock, Stock and Two Smoking Barrels [драма, криминал, комедия, 1998] BDRip 1080p, Mvo+Avo+Sub

salma3

76 | 7

15.87 ГБ

В этой теме нет новых непрочитанных сообщений. Деньги, деньги, еще деньги / Больше денег / Mo' Money [Комедия, 1992] WEB-DLRip, Avo

salma3

16 | 6

1.46 ГБ

В этой теме нет новых непрочитанных сообщений. Тяжелые деньги / Трудные деньги / Run for the Money / Hard Cash [Боевик, триллер, криминал. 2002] WEB-DLRip, Mvo

salma3

44 | 27

1.46 ГБ

В этой теме нет новых непрочитанных сообщений. Jack Foster III - Apple Jack Magic [2014, Progressive Rock, MP3]

PriZraK

0 | 1

106.86 МБ

В этой теме нет новых непрочитанных сообщений. Хорошая домашняя порнушка [2013 г., Amateur, CamRip]

Dievas2

153 | 9

129.6 МБ

В этой теме нет новых непрочитанных сообщений. За пригоршню долларов / A Fistful Of Dollars [Вестерн, 1964] BDRip 1080p, Mvo+Avo+Sub

salma3

45 | 10

9.84 ГБ


Начать новую тему Ответить на тему  [ 1 сообщение ] 




Для Мосгорсуда, Роскомнадзора и рекламодателей:: mosgorsud-torrent[собачка]yandex.ru