Торрент файл
скачать торрент магнет ссылка Добавлен: 27 янв 2012, 15:35
Размер: 1.46 ГБ
Сидеров: 7
Личеров: 4
Статус: (Dracon)
Автор

СообщениеДобавлено: 27 янв 2012, 15:35 

Не в сети
Зам. Админа
Аватара пользователя
Дата регистрации:
02 дек 2010, 12:39
Спасибо: 12461 / 214
Сообщения: 27968

Голодный кролик атакует / Seeking Justice

Год выхода: 2011
Страна: США
Жанр:боевик, триллер, драма
Продолжительность: 01:44:49
Перевод: Профессиональный (полное дублирование) [Звук с TS] + Оригинальная дорожка (английский)
Субтитры: нет

Режиссер: Роджер Дональдсон / Roger Donaldson

В ролях: Николас Кейдж, Дженьюэри Джонс, Дженнифер Карпентер, Гай Пирс, Айрон Э. Синглтон, Ксандер Беркли, Хэролд Перрино, Джо Крест, Моника Акоста, Дэвид Дженсен и др.

Описание: Фильм сфокусируется на человеке, супруга которого становится жертвой жестокого преступления, и он внедряется в тайную организацию мстителей.


Качество: DVDRip [Seeking.Justice.2011.R3.DVDRip.XviD.AC3-ViSiON] [b]Формат: AVI
Видео: 720x400 (1.80:1), 23.976 fps, XviD build 64 ~1398 kbps avg, 0.20 bit/pixel
Аудио #1: 48 kHz, MPEG Layer 3, 2 ch, ~128.00 kbps avg rus
Аудио #2: 48 kHz, AC3 Dolby Digital, 3/2 (L,C,R,l,r) + LFE ch, ~448.00 kbps avg eng



Примечание: Рип сделан исключительно ради совместимости с бытовыми проигрывателями. В старом частота кадра 47.952 fps. У многих прыгает, дергается, вообще не запускается и не воспроизводится.
Для проверки совместимости с ВАШИМ оборудованием, проверки качества изображения и звука используйте сэмпл!
Оба рипа - с одного исходника. Ничего лучше в сети пока нет. Кому невтерпеж - идут в кино, или качают. Кому втерпеж - ждут лицку, и проходят мимо.

Общее
Полное имя: Golodnyi.krolik.atakuet.2011.R3.DVDRip.XviD.AC3.rus.DUB.eng.avi
Формат: AVI
Формат/Информация: Audio Video Interleave
Размер файла: 1,46 Гбайт
Продолжительность: 1 ч. 44 м.
Общий поток: 1989 Кбит/сек
Название фильма: Seeking Justice
Режиссёр: Rodzher Donal'dson
Жанр: Thriller
Программа кодирования: VirtualDubMod 1.5.10.2 (build 2540/release)
Формат оригинала/Имя: Movie

Видео
Идентификатор: 0
Формат: MPEG-4 Visual
Профиль формата: Advanced Simple@L5
Параметр BVOP формата: 1
Параметр QPel формата: Нет
Параметр GMC формата: Без точки перехода
Параметр матрицы формата: Выборочная
Идентификатор кодека: XVID
Идентификатор кодека/Подсказка: XviD
Продолжительность: 1 ч. 44 м.
Битрейт: 1399 Кбит/сек
Ширина: 720 пикселей
Высота: 400 пикселей
Соотношение сторон: 16:9
Частота кадров: 23,976 кадра/сек
Цветовое пространство: YUV
Субдискретизация насыщенности: 4:2:0
Битовая глубина: 8 бит
Тип развёртки: Прогрессивная
Метод сжатия: С потерями
Бит/(Пиксели*Кадры): 0.203
Размер потока: 1,02 Гбайт (70%)
Библиотека кодирования: XviD 64

Аудио #1
Идентификатор: 1
Формат: MPEG Audio
Версия формата: Version 1
Профиль формата: Layer 3
Режим: Joint stereo
Идентификатор кодека: 55
Идентификатор кодека/Подсказка: MP3
Продолжительность: 1 ч. 44 м.
Вид битрейта: Постоянный
Битрейт: 128 Кбит/сек
Каналы: 2 канала
Частота: 48,0 КГц
Метод сжатия: С потерями
Размер потока: 96,0 Мбайт (6%)
Выравнивание: Соединение по промежуткам
Продолжительность промежутка: 42мс. (1,00 видеокадр)
Время предзагрузки промежутка: 504мс.

Аудио #2
Идентификатор: 2
Формат: AC-3
Формат/Информация: Audio Coding 3
Расширение режима: CM (complete main)
Идентификатор кодека: 2000
Продолжительность: 1 ч. 44 м.
Вид битрейта: Постоянный
Битрейт: 448 Кбит/сек
Каналы: 6 каналов
Расположение каналов: Front: L C R, Side: L R, LFE
Частота: 48,0 КГц
Битовая глубина: 16 бит
Метод сжатия: С потерями
Размер потока: 336 Мбайт (23%)
Выравнивание: Разделение по промежуткам
Продолжительность промежутка: 42мс. (1,00 видеокадр)
Время предзагрузки промежутка: 500мс.




реклама партнёра


Вернуться к началу
 Профиль  
 
   Похожие торренты   Автор   Торрент   Размер 
В этой теме нет новых непрочитанных сообщений. Наемники / Mercenary for Justice [Боевик, триллер, драма, 2006] HDRip, Mvo

salma3

0 | 2

1.46 ГБ

В этой теме нет новых непрочитанных сообщений. Бэтмен против Супермена: На заре справедливости / Batman v Superman: Dawn of Justice [Фантастика, фэнтези, боевик, приключения, 2016] WEB-DLRip, Dub [Чистый Звук]

salma3

2136 | 76

2.05 ГБ

В этой теме нет новых непрочитанных сообщений. Бэтмен против Супермена: На заре справедливости / Batman v Superman: Dawn of Justice [Фантастика, фэнтези, боевик, приключения, 2016] WEB-DLRip, Dub [Чистый Звук]

salma3

90 | 2

1.37 ГБ

В этой теме нет новых непрочитанных сообщений. Перекресток смерти / True Justice [Боевик, триллер, драма, криминал, 2012] BDRemux 1080p, Dub [РЕН ТВ]

salma3

5 | 7

22.22 ГБ

В этой теме нет новых непрочитанных сообщений. Перекресток смерти / True Justice [Боевик, триллер, драма, криминал, 2012] BDRip 720p, Dub [РЕН ТВ]

salma3

16 | 5

3.17 ГБ

В этой теме нет новых непрочитанных сообщений. Лига Справедливости: Трон Атлантиды / Justice League: Throne of Atlantis (Джей Олива, Этан Сполдинг) [мультфильм, боевик, приключения, 2015] HDRip, mvo [Чистый звук]

Dracon

56 | 3

1.37 ГБ

В этой теме нет новых непрочитанных сообщений. Лига Справедливости: Трон Атлантиды / Justice League: Throne of Atlantis (Джей Олива, Этан Сполдинг) [боевик, приключения, 2015] BDRip 720p, mvo+sub [Чистый звук]

Dracon

30 | 4

2.29 ГБ


Начать новую тему Ответить на тему  [ 1 сообщение ] 




Для Мосгорсуда, Роскомнадзора и рекламодателей:: mosgorsud-torrent[собачка]yandex.ru