Торрент файл
скачать торрент магнет ссылка Добавлен: 22 янв 2012, 15:39
Размер: 744.04 МБ
Сидеров: 15
Личеров: 11
Автор

СообщениеДобавлено: 22 янв 2012, 15:39 

Не в сети
Супермодератор
Аватара пользователя
Дата регистрации:
11 апр 2010, 18:10
Спасибо: 5801 / 7
Сообщения: 56779
Дикие сердцем / Wild at Heart


Перевод: Профессиональный (многоголосый, закадровый), cубтитры: отсутствуют
Формат: HDRip, AVI, XviD, MP3
Страна: США
Режиссер: Дэвид Линч
Жанр: триллер, мелодрама, криминал
Продолжительность: 02:05:01
Год выпуска: 1990
В ролях: Николас Кейдж, Лора Дерн, Уиллем Дефо, Дж. Э. Фримен, Криспин Гловер, Дайан Лэдд, Кэлвин Локхарт, Изабелла Росселлини, Гарри Дин Стэнтон, Грейс Забриски, Уильям Морган Шеппард, Дэвид Патрик Келли, Шерилин Фенн, Фредди Джонс, Джон Лури, Прюитт Тэйлор Винс, Джек Нэнс

Описание: Сейлор и Лула спасаются от безжалостной команды наемных убийц, нанятых безумной матерью Лулы Мариэттой. В погоню за беглецами вначале пускается дружок Мариэтты, частный детектив Джонни, а когда Джонни возвращается ни с чем, Мариэтта призывает на помощь своего бывшего любовника, гангстера Сантоса…



Видео: 640x272 (2.35:1), 24.000 fps, XviD build 50 ~710 kbps avg, 0.17 bit/pixel
Аудио: 44.100 kHz, MPEG Layer 3, 2 ch, ~112.00 kbps avg




Общее
Полное имя: E:\Дикие сердцем.avi
Формат: AVI
Формат/Информация: Audio Video Interleave
Размер файла: 744 Мбайт
Продолжительность: 2 ч. 5 м.
Общий поток: 832 Кбит/сек
Режиссёр: Last Boy Scout
Программа кодирования: VirtualDubMod 1.5.10.2 (build 2540/release)
Правообладатель: rutracker.org
Примечание: HDRip MVO

Видео
Идентификатор: 0
Формат: MPEG-4 Visual
Профиль формата: Advanced Simple@L5
Параметр BVOP формата: 1
Параметр QPel формата: Нет
Параметр GMC формата: Без точки перехода
Параметр матрицы формата: Выборочная
Идентификатор кодека: XVID
Идентификатор кодека/Подсказка: XviD
Продолжительность: 2 ч. 5 м.
Битрейт: 711 Кбит/сек
Ширина: 640 пикс.
Высота: 272 пикс.
Соотношение сторон: 2,35:1
Частота кадров: 24,000 кадр/сек
Цветовое пространство: YUV
Подвыборка цветности: 4:2:0
Битовая глубина: 8 бит
Тип развёртки: Прогрессивная
Метод сжатия: С потерями
Бит/(Пиксели*Кадры): 0.170
Размер потока: 635 Мбайт (85%)
Библиотека кодирования: XviD 1.2.1 (UTC 2008-12-04)

Аудио
Идентификатор: 1
Формат: MPEG Audio
Версия формата: Version 1
Профиль формата: Layer 3
Идентификатор кодека: 55
Идентификатор кодека/Подсказка: MP3
Продолжительность: 2 ч. 5 м.
Вид битрейта: Постоянный
Битрейт: 112 Кбит/сек
Канал(ы): 2 канала(ов)
Частота: 44,1 КГц
Метод сжатия: С потерями
Размер потока: 100 Мбайт (13%)
Выравнивание: Разделение по промежуткам
Продолжительность промежутка: 42мс. (1,00 видеокадр)
Время предзагрузки промежутка: 500 ms
Библиотека кодирования: LAME3.98r
Настройки программы: -m s -V 4 -q 2 -lowpass 15.6 -b 112





Поделиться:




реклама партнёра


Вернуться к началу
 Профиль Отправить личное сообщение  
 
   Похожие торренты   Автор   Торрент   Размер 
В этой теме нет новых непрочитанных сообщений. Твин Пикс / Twin Peaks [01х01-04 из 8] (Дэвид Линч, Лесли Линка Глаттер, Калеб Дешанель) [1990, Детектив, Драма, Криминал, Мистика, Триллер, Ужасы, Фантастика, BDRip 720p | AlexFilm]

Nickolas3435

30 | 11

16.82 ГБ

В этой теме нет новых непрочитанных сообщений. Дикие псы / Wild Dogs (Ха Вон-Чжун / Ha Won-Joon) [2014г., драма, триллер, криминал, DVDRip] VO

Alfredovich

5 | 4

1.47 ГБ

В этой теме нет новых непрочитанных сообщений. Дикие лошади  / Wild Horses (Роберт Дювалл) [Драма, криминал, 2015] WEB-DLRip, avo

Dracon

12 | 0

1.25 ГБ

В этой теме нет новых непрочитанных сообщений. Дикие лошади / Wild Horses [Драма, криминал, 2015] BDRip 1080p, Dub [Line]

salma3

161 | 37

6.8 ГБ

В этой теме нет новых непрочитанных сообщений. Дикие гуси / The Wild Geese [Боевик, драма, приключения, военный, 1978] HDRip, Mvo

salma3

24 | 4

1.45 ГБ

В этой теме нет новых непрочитанных сообщений. Дикие лошади / Wild Horses (Роберт Дювалл) [Драма, криминал, 2015] DVD5 [Sunny-Films]

Dracon

26 | 26

4.37 ГБ

В этой теме нет новых непрочитанных сообщений. Дикие гуси 2 / Wild Geese II [Боевик, триллер, приключения, 1985] DVDRip, Mvo [1 канал]

salma3

13 | 3

1.45 ГБ


Начать новую тему Ответить на тему  [ 1 сообщение ] 




Для Мосгорсуда, Роскомнадзора и рекламодателей:: mosgorsud-torrent[собачка]yandex.ru