Торрент файл
скачать торрент магнет ссылка Добавлен: 22 янв 2012, 15:38
Размер: 2.09 ГБ
Сидеров: 100
Личеров: 15
Автор

СообщениеДобавлено: 22 янв 2012, 15:38 

Не в сети
Супермодератор
Аватара пользователя
Дата регистрации:
11 апр 2010, 18:10
Спасибо: 5799 / 7
Сообщения: 56779
Меланхолия / Melancholia

Перевод: Профессиональный (многоголосый, закадровый), cубтитры: отсутствуют
Формат: HDRip-AVC, MKV, H.264, AC3
Страна: Германия, Дания, Швеция, Франция
Режиссер: Ларс фон Триер
Жанр: фантастика, драма
Продолжительность: 02:09:59
Год выпуска: 2011
В ролях: Кирстен Данст, Шарлотта Генсбур, Александр Скарсгард, Кифер Сазерленд, Брэйди Корбет, Шарлотта Рэмплинг, Еспер Кристенсен, Джон Хёрт, Стеллан Скарсгард, Удо Кир
Описание: Свадебная вечеринка оборачивается катастрофой вселенского масштаба: обнаруживается, что на Землю надвигается планета под названием Меланхолия. С каждым часом она все ближе, и шансов на выживание у человечества все меньше…

Видео: 1280x544 (2,35:1), 25,000 fps, AVC (х264), High@L4.1 ~2000 kbps avg, 0.107 bit/pixel
Аудио: 48 kHz, AC-3, 6 ch, ~384.00 kbps avg


Автор РИПа:
Общее
Уникальный идентификатор : 221574234153573545127091474888846941984 (0xA6B1A52ED940F358984BCEEEC1D31F20)
Полное имя : f:\Downloads\melancholia_[tfile.ru].mkv
Формат : Matroska
Размер файла : 2,09 Гбайт
Продолжительность : 2 ч. 9 м.
Общий поток : 2300 Кбит/сек
Дата кодирования : UTC 2011-11-11 16:49:20
Программа кодирования : mkvmerge v4.6.0 ('Still Crazy After All These Years') сборка от Mar 10 2011 02:50:32
Библиотека кодирования : libebml v1.2.0 + libmatroska v1.1.0

Видео
Идентификатор : 1
Формат : AVC
Формат/Информация : Advanced Video Codec
Профиль формата : High@L4.1
Параметр CABAC формата : Да
Параметр ReFrames формата : 3 кадра
Режим смешивания : Header stripping
Идентификатор кодека : V_MPEG4/ISO/AVC
Продолжительность : 2 ч. 9 м.
Битрейт : 1870 Кбит/сек
Номинальный битрейт : 2000 Кбит/сек
Ширина : 1280 пикс.
Высота : 544 пикс.
Соотношение сторон : 2,35:1
Режим частоты кадров : Переменный
Частота кадров : 25,000 кадр/сек
Цветовое пространство : YUV
Подвыборка цветности : 4:2:0
Битовая глубина : 8 бит
Тип развёртки : Прогрессивная
Бит/(Пиксели*Кадры) : 0.107
Размер потока : 1,70 Гбайт (81%)
Библиотека кодирования : x264 core 116 r2019M 9cc407d
Настройки программы : cabac=1 / ref=3 / deblock=1:-1:-1 / analyse=0x3:0x133 / me=hex / subme=7 / psy=1 / psy_rd=1.00:0.15 / mixed_ref=1 / me_range=16 / chroma_me=1 / trellis=1 / 8x8dct=1 / cqm=0 / deadzone=21,11 / fast_pskip=1 / chroma_qp_offset=-3 / threads=8 / sliced_threads=0 / nr=0 / decimate=1 / interlaced=0 / bluray_compat=0 / constrained_intra=0 / bframes=3 / b_pyramid=1 / b_adapt=2 / b_bias=0 / direct=3 / weightb=1 / open_gop=0 / weightp=2 / keyint=250 / keyint_min=25 / scenecut=40 / intra_refresh=0 / rc_lookahead=40 / rc=abr / mbtree=1 / bitrate=2000 / ratetol=1.0 / qcomp=0.60 / qpmin=10 / qpmax=51 / qpstep=4 / vbv_maxrate=31250 / vbv_bufsize=31250 / nal_hrd=none / ip_ratio=1.40 / aq=1:1.00
Язык : English

Аудио
Идентификатор : 2
Формат : AC-3
Формат/Информация : Audio Coding 3
Расширение режима : CM (complete main)
Режим смешивания : Header stripping
Идентификатор кодека : A_AC3
Продолжительность : 2 ч. 9 м.
Вид битрейта : Постоянный
Битрейт : 384 Кбит/сек
Каналы : 6 каналов
Расположение каналов : Front: L C R, Side: L R, LFE
Частота : 48,0 КГц
Битовая глубина : 16 бит
Метод сжатия : С потерями
Размер потока : 357 Мбайт (17%)
Заголовок : MVO
Язык : Russian














Поделиться:




реклама партнёра


Вернуться к началу
 Профиль Отправить личное сообщение  
 
   Похожие торренты   Автор   Торрент   Размер 
В этой теме нет новых непрочитанных сообщений. Мандерлей / Manderlay (Ларс Фон Триер / Lars von Trier) [2005г., Дания, драма, DVDRip] Dub

Alfredovich

58 | 4

2.04 ГБ

В этой теме нет новых непрочитанных сообщений. Зверь / Beast (Ларс Педерсен / Lars Pedersen) [2009г., драма, короткий метр, DVB] DVO

Alfredovich

2 | 3

319.83 МБ

В этой теме нет новых непрочитанных сообщений. Громче, чем бомбы / Louder Than Bombs (Йоаким Триер / Joachim Trier) [2015г., Норвегия, драма, BDRip 720p] Dub

Alfredovich

921 | 357

4.62 ГБ

В этой теме нет новых непрочитанных сообщений. Лобовая Атака / Kanak Attack (Ларс Беккер / Lars Becker) [2000г., Германия, драма, DVDRip] DVO

Alfredovich

1 | 0

1.41 ГБ

В этой теме нет новых непрочитанных сообщений. September Mourning - Melancholia [2012, Gothic Metal, Female Vocal, MP3]

PriZraK

0 | 1

82.49 МБ

В этой теме нет новых непрочитанных сообщений. Тайны Смолвиля / Smallville [S01-10] [фантастика, драма, мелодрама, приключения, 2001-2011] WEB-DLRip, DVDRip, HDRip, Mvo [СТС]

salma3

83 | 206

79.92 ГБ

В этой теме нет новых непрочитанных сообщений. Она / Her [Мелодрама, драма, фантастика, 2013] HDRip, mvo

Dracon

72 | 3

2.05 ГБ


Начать новую тему Ответить на тему  [ 1 сообщение ] 




Для Мосгорсуда, Роскомнадзора и рекламодателей:: mosgorsud-torrent[собачка]yandex.ru