Торрент файл
скачать торрент магнет ссылка Добавлен: 22 янв 2012, 15:37
Размер: 1.46 ГБ
Сидеров: 47
Личеров: 12
Автор

СообщениеДобавлено: 22 янв 2012, 15:37 

Не в сети
Супермодератор
Аватара пользователя
Дата регистрации:
11 апр 2010, 18:10
Спасибо: 5802 / 7
Сообщения: 56779
Более странно, чем в раю / Stranger than Paradise

Перевод: Профессиональный (многоголосый, закадровый)
Субтитры: русские, английские [подключаемые]

Формат: DVDRip-AVC, MKV, H.264, AC3

Страна: США, Германия (ФРГ)
Режиссер: Джим Джармуш
Жанр: драма, комедия

Продолжительность: 01:29:26

Год выпуска: 1984

В ролях: Джон Лури, Эстер Балинт, Ричард Эдсон, Дэнни Розен, Том ДиЧилло, Ричард Боэ

Описание: Скучающие молодые парни Вилли и Эдди — бездельники и игроки. Их жизнь — такая же затхлая помойка, как и квартал Манхеттена, в котором они обитают. Однако в один прекрасный день к Вилли приезжает юная кузина Ева из Венгрии, и постепенно друзья решаются на перемены…



Видео: 720х400 (1.8:1), 23.976 fps, AVC (x264) High@L3.1 ~2134 Kbps, 0.309 bit/pixel

Аудио #1:Русский: 48 kHz, AC-3, 1 ch (Front: C), ~96 kbps avg [Профессиональный (многоголосый, закадровый)]
Аудио #2:Английский: 48 kHz, AC-3, 1 ch (Front: C), ~96 kbps avg [Оригинал]


General
Unique ID: 237660261776950082604066087013788543208 (0xB2CBB393D8CA7A92BFDC3CE82A51E8E
Format: Matroska
File size: 1.46 GiB
Duration: 1h 29mn
Overall bit rate: 2 329 Kbps
Movie name: Stranger Than Paradise
Encoded date: UTC 2009-04-15 09:23:54
Writing application: mkvmerge v2.4.1 ('Use Me') built on Dec5 2008 18:30:05
Writing library: libebml v0.7.7 + libmatroska v0.8.1

Video
ID: 1
Format: AVC
Format/Info: Advanced Video Codec
Format profile: High@L3.1
Format settings, CABAC: Yes
Format settings, ReFrames: 8 frames
Format settings, GOP: M=2, N=3
Codec ID: V_MPEG4/ISO/AVC
Duration: 1h 29mn
Bit rate: 2 134 Kbps
Width: 720 pixels
Height: 400 pixels
Display aspect ratio: 16:9
Frame rate: 23.976 fps
Color space: YUV
Chroma subsampling: 4:2:0
Bit depth: 8 bits
Scan type: Progressive
Bits/(Pixel*Frame): 0.309
Stream size: 1.31 GiB (90%)
Title: x264 High@L3.1, 2134 Kbps (Softcode Video)
Writing library: x264 core 67 r1134M b8808bf
Encoding settings: cabac=1 / ref=8 / deblock=1:-1:-1 / analyse=0x3:0x133 / me=umh / subme=9 / psy_rd=0.9:0.2 / mixed_ref=1 / me_range=16 / chroma_me=1 / trellis=2 / 8x8dct=1 / cqm=0 / deadzone=21,11 / chroma_qp_offset=-3 / threads=3 / nr=0 / decimate=0 / mbaff=0 / bframes=8 / b_pyramid=1 / b_adapt=2 / b_bias=0 / direct=3 / wpredb=1 / keyint=250 / keyint_min=25 / scenecut=40 / rc=2pass / bitrate=2134 / ratetol=1.0 / qcomp=0.70 / qpmin=10 / qpmax=51 / qpstep=4 / cplxblur=20.0 / qblur=0.5 / vbv_maxrate=17500 / vbv_bufsize=14000 / ip_ratio=1.40 / pb_ratio=1.30 / aq=1:0.80

Audio #1
ID: 2
Format: AC-3
Format/Info: Audio Coding 3
Mode extension: CM (complete main)
Codec ID: A_AC3
Duration: 1h 29mn
Bit rate mode: Constant
Bit rate: 96.0 Kbps
Channel(s): 1 channel
Channel positions: Front: C
Sampling rate: 48.0 KHz
Bit depth: 16 bits
Compression mode: Lossy
Stream size: 61.4 MiB (4%)
Title: MVO, AC3 1.0ch, 96 Kbps
Language: Russian

Audio #2
ID: 3
Format: AC-3
Format/Info: Audio Coding 3
Mode extension: CM (complete main)
Codec ID: A_AC3
Duration: 1h 29mn
Bit rate mode: Constant
Bit rate: 96.0 Kbps
Channel(s): 1 channel
Channel positions: Front: C
Sampling rate: 48.0 KHz
Bit depth: 16 bits
Compression mode: Lossy
Stream size: 61.4 MiB (4%)
Title: AC3 1.0ch, 96 Kbps
Language: English

Text #1
ID: 4
Format: UTF-8
Codec ID: S_TEXT/UTF8
Codec ID/Info: UTF-8 Plain Text
Title: SRT Subtitles
Language: Russian

Text #2
ID: 5
Format: UTF-8
Codec ID: S_TEXT/UTF8
Codec ID/Info: UTF-8 Plain Text
Title: SRT Subtitles
Language: English


Санденс, 1985 год:
Победитель (1):
- Специальный приз жюри в категории «Драматический фильм»

Номинации (1):
- Гран-при в категории «Драматический фильм»

Каннский кинофестиваль, 1984 год:
Победитель (1):
- Золотая камера (награда за режиссерский дебют) (Джим Джармуш)

МКФ в Локарно:
Победитель (1):
- Главный приз и особое упоминание экуменического жюри

«Кинема дзюнпо» в Японии:
Победитель (1):
- Лучшая иностранная лента

Включён в 2002 году в Национальный регистр фильмов










Поделиться:




реклама партнёра


Вернуться к началу
 Профиль Отправить личное сообщение  
 
   Похожие торренты   Автор   Торрент   Размер 
В этой теме нет новых непрочитанных сообщений. Не менее странно, чем любовь / No Stranger Than Love [мелодрама, комедия, 2015] WEBDLRip, Mvo

salma3

34 | 2

1.35 ГБ

В этой теме нет новых непрочитанных сообщений. Чужой в раю / A Stranger in Paradise [Триллер, 2013] HDRip, avo

Dracon

25 | 4

924.03 МБ

В этой теме нет новых непрочитанных сообщений. Класс 1984 / Class of 1984 [триллер, драма, криминал, 1982] DVDRip, Avo

salma3

78 | 8

1.37 ГБ

В этой теме нет новых непрочитанных сообщений. Райские поездки / Paradise Trips [драма, комедия, 2015] DVDRip, Avo

salma3

22 | 5

1.37 ГБ

В этой теме нет новых непрочитанных сообщений. Убойное чтиво / Stranger Than Fiction [триллер, комедия, 2000] DVDRip, Mvo

salma3

7 | 5

1.46 ГБ

В этой теме нет новых непрочитанных сообщений. Учителя / Teachers [драма, мелодрама, комедия, 1984] DVDRip, Dvo

salma3

16 | 2

1.46 ГБ

В этой теме нет новых непрочитанных сообщений. Amber And Ashes - Растекаясь на пол так странно (Demo) [2008, Metalcore, MP3]

PriZraK

0 | 1

57.41 МБ


Начать новую тему Ответить на тему  [ 1 сообщение ] 




Для Мосгорсуда, Роскомнадзора и рекламодателей:: mosgorsud-torrent[собачка]yandex.ru