Торрент файл
скачать торрент магнет ссылка Добавлен: 22 янв 2012, 15:23
Размер: 2.18 ГБ
Сидеров: 254
Личеров: 16
Автор

СообщениеДобавлено: 22 янв 2012, 15:23 

Не в сети
Супермодератор
Аватара пользователя
Дата регистрации:
11 апр 2010, 18:10
Спасибо: 5801 / 7
Сообщения: 56779
Инопланетное вторжение: Битва за Лос-Анджелес / Battle: Los Angeles

Перевод: Профессиональный (полное дублирование)
Субтитры: Русские (forced)
Формат: DVDRip-AVC, MKV, H.264, AC3
Страна: США
Режиссер: Джонатан Либесман
Жанр: Фантастика, боевик, триллер
Продолжительность: 01:51:22
Год выпуска: 2011

В ролях: Аарон Экхарт, Бриджет Мойнэхэн, Мишель Родригес, Майкл Пенья, Рамон Родригез, Кори Хардрикт, Джино Энтони Песи, Шаффер Смит, Джеймс Хироюки Лиао, Ноэль Фишер...

Описание: Землю пытается захватить инопланетная цивилизация, истребляя все живое на своем пути. По всему миру начинается широкомасштабное сражение человечества за выживание. Отряду морских пехотинцев поручено во что бы то ни стало освободить осажденный город ангелов от таинственных и смертоносных тварей…



Релиз:

Видео: 720x416@1024x416 (2,462), 25 fps, x264 (High@L4.1) ~1911 Kbps, 0.26 bit/pixel
Аудио #1: Русский: 48,0 КГц, AC3, ~448 Kbps, 6 ch [Профессиональный (полное дублирование) Лицензия]
Аудио #2: Украинский: 48,0 КГц, AC3, ~448 Kbps, 6 ch [Профессиональный (полное дублирование)]


Код:
Цитата:
Формат: Matroska
Размер файла: 2,18 Гбайт
Продолжительность: 1 ч. 51 м.
Общий поток: 2809 Кбит/сек
Дата кодирования: UTC 2011-04-01 11:44:19
Программа кодирования: mkvmerge v3.3.0 ('Language') built on Mar 24 2010 14:59:24
Библиотека кодирования: libebml v0.8.0 + libmatroska v0.9.0

Видео
Идентификатор: 1
Формат: AVC
Формат/Информация: Advanced Video Codec
Профиль формата: High@L4.1
Параметр CABAC формата: Да
Параметр ReFrames формата: 4 кадры
Идентификатор кодека: V_MPEG4/ISO/AVC
Продолжительность: 1 ч. 51 м.
Битрейт: 1911 Кбит/сек
Ширина: 720 пикс.
Высота: 416 пикс.
Соотношение сторон: 2,462
Частота кадров: 25,000 кадр/сек
Цветовое пространство: YUV
Подвыборка цветности: 4:2:0
Битовая глубина: 8 бит
Тип развёртки: Прогрессивная
Бит/(Пиксели*Кадры): 0.255
Размер потока: 1,44 Гбайт (66%)
Библиотека кодирования: x264 core 114 r1913 5fd3dce
Настройки программы: cabac=1 / ref=4 / deblock=1:-1:-1 / analyse=0x3:0x113 / me=umh / subme=6 / psy=1 / psy_rd=1.00:0.00 / mixed_ref=1 / me_range=16 / chroma_me=1 / trellis=2 / 8x8dct=1 / cqm=0 / deadzone=21,11 / fast_pskip=1 / chroma_qp_offset=-2 / threads=12 / sliced_threads=0 / nr=0 / decimate=1 / interlaced=0 / constrained_intra=0 / bframes=3 / b_pyramid=0 / b_adapt=2 / b_bias=0 / direct=3 / weightb=1 / open_gop=0 / weightp=2 / keyint=250 / keyint_min=25 / scenecut=40 / intra_refresh=0 / rc_lookahead=40 / rc=2pass / mbtree=1 / bitrate=1911 / ratetol=1.0 / qcomp=0.60 / qpmin=10 / qpmax=51 / qpstep=4 / cplxblur=20.0 / qblur=0.5 / vbv_maxrate=50000 / vbv_bufsize=50000 / nal_hrd=none / ip_ratio=1.40 / aq=1:1.00
Язык: English

Аудио #1
Идентификатор: 2
Формат: AC-3
Формат/Информация: Audio Coding 3
Расширение режима: CM (complete main)
Идентификатор кодека: A_AC3
Продолжительность: 1 ч. 51 м.
Вид битрейта: Постоянный
Битрейт: 448 Кбит/сек
Канал(ы): 6 канала(ов)
Расположение каналов: Front: L C R, Side: L R, LFE
Частота: 48,0 КГц
Битовая глубина: 16 бит
Метод сжатия: С потерями
Размер потока: 357 Мбайт (16%)
Язык: Russian

Аудио #2
Идентификатор: 3
Формат: AC-3
Формат/Информация: Audio Coding 3
Расширение режима: CM (complete main)
Идентификатор кодека: A_AC3
Продолжительность: 1 ч. 51 м.
Вид битрейта: Постоянный
Битрейт: 448 Кбит/сек
Канал(ы): 6 канала(ов)
Расположение каналов: Front: L C R, Side: L R, LFE
Частота: 48,0 КГц
Битовая глубина: 16 бит
Метод сжатия: С потерями
Размер потока: 357 Мбайт (16%)
Язык: Ukrainian

Текст
Идентификатор: 4
Формат: UTF-8
Идентификатор кодека: S_TEXT/UTF8
Идентификатор кодека/Информация: UTF-8 Plain Text
Заголовок: Forced
Язык: Russian






Поделиться:




реклама партнёра


Вернуться к началу
 Профиль Отправить личное сообщение  
 
   Похожие торренты   Автор   Торрент   Размер 
В этой теме нет новых непрочитанных сообщений. Инопланетное вторжение: Битва за Лос-Анджелес / Battle Los Angeles [Фантастика, Боевик, 2011] BDRip, Avo [Гаврилов]

salma3

0 | 5

1.46 ГБ

В этой теме нет новых непрочитанных сообщений. Вторжение в Лос-Анджелес / Apocalypse L.A. [Ужасы, Фантастика, Боевик, 2014] DVDRip, Avo

salma3

292 | 7

1.36 ГБ

В этой теме нет новых непрочитанных сообщений. Вторжение в Лос-Анджелес / Apocalypse L.A. [ужасы, фантастика, боевик, 2014] DVDRip, Avo

salma3

11 | 5

1.25 ГБ

В этой теме нет новых непрочитанных сообщений. Морская Полиция: Лос-Анджелес / NCIS: Los Angeles / 3 сезон 1-19 серии из 24 [Триллер, драма, криминал, детектив, боевик, 2011-2012] WEB-DLRip, Mvo [FOX]

salma3

0 | 1

13.17 ГБ

В этой теме нет новых непрочитанных сообщений. Морская Полиция: Лос-Анджелес / NCIS: Los Angeles / 2 сезон 1-24 серии из 24 [Триллер, драма, криминал, детектив, боевик, 2010-2011] WEB-DLRip, Mvo [FOX]

salma3

36 | 8

13.64 ГБ

В этой теме нет новых непрочитанных сообщений. Вторжение в Лос-Анджелес / Disaster L.A. / Apocalypse L.A. [ужасы, фантастика, боевик, 2014] BDRip 1080p, Avo+Sub

salma3

104 | 9

6.67 ГБ

В этой теме нет новых непрочитанных сообщений. Вторжение в Лос-Анджелес / Disaster L.A. / Apocalypse L.A. [ужасы, фантастика, боевик, 2014] BDRip 720p, Avo+Sub

salma3

282 | 8

3.39 ГБ


Начать новую тему Ответить на тему  [ 1 сообщение ] 




Для Мосгорсуда, Роскомнадзора и рекламодателей:: mosgorsud-torrent[собачка]yandex.ru