Торрент файл
скачать торрент магнет ссылка Добавлен: 22 янв 2012, 15:19
Размер: 1.45 ГБ
Сидеров: 202
Личеров: 14
Автор

СообщениеДобавлено: 22 янв 2012, 15:19 

Не в сети
Супермодератор
Аватара пользователя
Дата регистрации:
11 апр 2010, 18:10
Спасибо: 5960 / 7
Сообщения: 56765
Инопланетное вторжение: Битва за Лос-Анджелес / Battle: Los Angeles

Перевод: Профессиональный (полное дублирование)
Субтитры: Русские (форсированные)
Формат: DVDRip-AVC, MKV, H.264, AC3
Страна: США
Режиссер: Джонатан Либесман / Jonathan Liebesman
Жанр: фантастика, боевик, триллер
Продолжительность: 01:51:22
Год выпуска: 2011

В ролях: Аарон Экхарт, Бриджет Мойнэхэн, Мишель Родригес, Майкл Пенья, Рамон Родригез, Кори Хардрикт, Джино Энтони Песи, Шаффер Смит, Джеймс Хироюки Лиао, Ноэль Фишер

Описание: Землю пытается захватить инопланетная цивилизация, истребляя все живое на своем пути. По всему миру начинается широкомасштабное сражение человечества за выживание.
Отряду морских пехотинцев поручено во что бы то ни стало освободить осажденный город ангелов от таинственных и смертоносных тварей…




Видео: 720 x 304 (2.35:1), 25.000 fps, AVC, High@L3.0, x264, ~ 930 Kbps, 0.170 bit/pixel

Аудио#1:Русский: 48.0 KHz, AC3 Dolby Digital, 3/2 (L,C,R,l,r) + LFE ch, ~ 448 Kbps [Профессиональный (полное дублирование)]
Аудио#2:Украинский:48.0 KHz, AC3 Dolby Digital, 3/2 (L,C,R,l,r) + LFE ch, ~ 448 Kbps [Профессиональный (полное дублирование)]

[Лицензия] Семпл

D:\Relises\inoplanetnoe_vtorzhenie_bitva_za_los_andzheles_[tfile.ru].mkv
General
Complete name : D:\Relises\inoplanetnoe_vtorzhenie_bitva_za_los_andzheles_[tfile.ru].mkv
Format : Matroska
File size : 1.45 GiB
Duration : 1h 51mn
Overall bit rate : 1 863 Kbps
Movie name : Инопланетное вторжение: Битва за Лос-Анджелес / Battle: Los Angeles (2011) DVDRip-AVC
Encoded date : UTC 2011-04-03 08:42:34
Writing application : mkvmerge v2.3.0 ('Freak U') built on Sep8 2008 18:32:16
Writing library : libebml v0.7.7 + libmatroska v0.8.1
Video #1
ID : 1
Format : AVC
Format/Info : Advanced Video Codec
Format profile : High@L3.0
Format settings, CABAC : Yes
Format settings, ReFrames : 4 frames
Muxing mode : Container profile=Unknown@3.0
Codec ID : V_MPEG4/ISO/AVC
Duration : 1h 51mn
Bit rate : 930 Kbps
Width : 720 pixels
Height : 304 pixels
Display aspect ratio : 2.35:1
Frame rate mode : Variable
Frame rate : 25.000 fps
Resolution : 8 bits
Colorimetry : 4:2:0
Scan type : Progressive
Bits/(Pixel*Frame) : 0.170
Stream size : 740 MiB (50%)
Language : English
Audio #2
ID : 2
Format : AC-3
Format/Info : Audio Coding 3
Format_Settings_ModeExtension : CM (complete main)
Codec ID : A_AC3
Duration : 1h 51mn
Bit rate mode : Constant
Bit rate : 448 Kbps
Channel(s) : 6 channels
Channel positions : Front: L C R, Side: L R, LFE
Sampling rate : 48.0 KHz
Video delay : 24ms
Stream size : 357 MiB (24%)
Language : Russian
Audio #3
ID : 3
Format : AC-3
Format/Info : Audio Coding 3
Format_Settings_ModeExtension : CM (complete main)
Codec ID : A_AC3
Duration : 1h 51mn
Bit rate mode : Constant
Bit rate : 448 Kbps
Channel(s) : 6 channels
Channel positions : Front: L C R, Side: L R, LFE
Sampling rate : 48.0 KHz
Video delay : 24ms
Stream size : 357 MiB (24%)
Language : Ukrainian
Text #4
ID : 4
Format : UTF-8
Codec ID : S_TEXT/UTF8
Codec ID/Info : UTF-8 Plain Text
Language : English





Поделиться:




реклама партнёра


Вернуться к началу
 Профиль Отправить личное сообщение  
 
   Похожие торренты   Автор   Торрент   Размер 
В этой теме нет новых непрочитанных сообщений. Хроники Шаннары / The Shannara Chronicles [01х01-04 из 10] (Брэд Тернер, Джонатан Либесман, Джеймс Маршалл) [2016, фантастика, фэнтези, приключения, WEB-DLRip | HamsterStudio]

Nickolas3434

860 | 564

1.56 ГБ

В этой теме нет новых непрочитанных сообщений. Хроники Шаннары / The Shannara Chronicles / 1 сезон 1-10 серии из 10 (Брэд Тернер, Джонатан Либесман, Джеймс Маршалл) [фантастика, фэнтези, приключения, 2016] WEB-DLRip [BaibaKo]

Dracon

274 | 522

5.49 ГБ

В этой теме нет новых непрочитанных сообщений. Хроники Шаннары / The Shannara Chronicles / 1 сезон 1-10 серии из 10 (Брэд Тернер, Джонатан Либесман, Джеймс Маршалл) [фантастика, фэнтези, приключения, 2016] WEB-DLRip [NewStudio]

Dracon

106 | 55

5.21 ГБ

В этой теме нет новых непрочитанных сообщений. Хроники Шаннары / The Shannara Chronicles (Сезон 1, Серия 1-10 из 10) (Брэд Тёрнер, Джонатан Либесман, Джеймс) [2016 , , Фантастика, фэнтези, приключения, экранизация , WEB-DLRip 1080p ] [MVO] [NewStudio , AlexFilm , LostFilm , Jaskier]

Враг Нароода

0 | 1

20.86 ГБ

В этой теме нет новых непрочитанных сообщений. Морская Полиция: Лос-Анджелес / NCIS: Los Angeles / 3 сезон 1-19 серии из 24 [Триллер, драма, криминал, детектив, боевик, 2011-2012] WEB-DLRip, Mvo [FOX]

salma3

0 | 1

13.17 ГБ

В этой теме нет новых непрочитанных сообщений. Battle: Los Angeles The Videogame [Action (Shooter), 3D, 1st Person, 2011] [RePack]

Sykre

26 | 4

1.31 ГБ

В этой теме нет новых непрочитанных сообщений. Битва за Скайарк / Battle for Skyark [фантастика, боевик, приключения, семейный, 2015] BDRip 720p, Avo

salma3

419 | 27

4.76 ГБ


Начать новую тему Ответить на тему  [ 1 сообщение ] 




Для Мосгорсуда, Роскомнадзора и рекламодателей:: mosgorsud-torrent[собачка]yandex.ru