Торрент файл
скачать торрент магнет ссылка Добавлен: 22 янв 2012, 15:13
Размер: 2.21 ГБ
Сидеров: 221
Личеров: 16
Автор

СообщениеДобавлено: 22 янв 2012, 15:13 

Не в сети
Супермодератор
Аватара пользователя
Дата регистрации:
11 апр 2010, 18:10
Спасибо: 5941 / 7
Сообщения: 56776
Красная шапочка / Red Riding Hood

Перевод: Профессиональный (полное дублирование), cубтитры: отсутствуют
Формат: HDRip-AVC, MKV, H.264, AC3
Страна: США, Канада
Режиссер: Кэтрин Хардвик
Жанр: ужасы, фэнтези, триллер, детектив
Продолжительность: 01:40:24
Год выпуска: 2011

В ролях: Аманда Сайфред, Гари Олдман, Билли Бёрк, Шайло Фернандез, Макс Айронс, Вирджиния Мэдсен, Лукас Хаас, Джули Кристи, Шона Кейн, Майкл Хоган

Описание: Валери — девочке в красном плаще — предстоит раскрыть, кто же в её родной деревушке является оборотнем. Между тем на личном фронте у Валери тоже не всё просто: мама хочет выдать её замуж за богатого кузнеца Генри, тогда как девушка влюблена в плохиша Питера, местного дровосека.



Видео: 1280x528(2.40:1),23.976 fps,V_MPEG4/ISO/AVC (High@L4.1),~2 769 Kbps,0.167 bit/pixel
Аудио: 48 kHz,A_AC3,6ch(Front: L C R, Side: L R, LFE),~384 Kbps

General
Unique ID: 239472566795956750351800437726591549646 (0xB428BD1D179557379A7436B7052B80CE)
Complete name: C:\Documents and Settings\Admin.MICROSOF-42B712\Мои документы\Downloads\Новинки\Krasnaja.shapochka.mkv
Format: Matroska
File size: 2.21 GiB
Duration: 1h 40mn
Overall bit rate: 3 155 Kbps
Movie name: Rip by victordan 95
Encoded date: UTC 2011-05-28 07:45:21
Writing application: mkvmerge v3.2.0 ('Beginnings') built on Feb 12 2010 16:46:17
Writing library: libebml v0.7.9 + libmatroska v0.8.1

Video
ID: 1
Format: AVC
Format/Info: Advanced Video Codec
Format profile: High@L4.1
Format settings, CABAC: Yes
Format settings, ReFrames: 5 frames
Format settings, GOP: M=4, N=16
Codec ID: V_MPEG4/ISO/AVC
Duration: 1h 40mn
Bit rate mode: Variable
Bit rate: 2 769 Kbps
Maximum bit rate: 15.0 Mbps
Width: 1 280 pixels
Height: 528 pixels
Display aspect ratio: 2.40:1
Original display aspect ratio: 2.40:1
Frame rate: 23.976 fps
Color space: YUV
Chroma subsampling: 4:2:0
Bit depth: 8 bits
Scan type: Progressive
Bits/(Pixel*Frame): 0.171
Stream size: 1.90 GiB (86%)
Writing library: x264 core 115 r1937 aa21558
Encoding settings: cabac=1 / ref=6 / deblock=1:0:0 / analyse=0x3:0x113 / me=umh / subme=8 / psy=1 / psy_rd=1.00:0.00 / mixed_ref=1 / me_range=16 / chroma_me=1 / trellis=1 / 8x8dct=1 / cqm=0 / deadzone=21,11 / fast_pskip=1 / chroma_qp_offset=-2 / threads=3 / sliced_threads=0 / slices=4 / nr=0 / decimate=1 / interlaced=0 / bluray_compat=1 / constrained_intra=0 / bframes=3 / b_pyramid=1 / b_adapt=1 / b_bias=0 / direct=3 / weightb=1 / open_gop=0 / weightp=1 / keyint=24 / keyint_min=1 / scenecut=40 / intra_refresh=0 / rc_lookahead=24 / rc=2pass / mbtree=1 / bitrate=2769 / ratetol=1.0 / qcomp=0.60 / qpmin=0 / qpmax=69 / qpstep=4 / cplxblur=20.0 / qblur=0.5 / vbv_maxrate=15000 / vbv_bufsize=15000 / nal_hrd=vbr / ip_ratio=1.10 / aq=1:1.00
Language: English

Audio
ID: 2
Format: AC-3
Format/Info: Audio Coding 3
Mode extension: CM (complete main)
Codec ID: A_AC3
Duration: 1h 40mn
Bit rate mode: Constant
Bit rate: 384 Kbps
Channel(s): 6 channels
Channel positions: Front: L C R, Side: L R, LFE
Sampling rate: 48.0 KHz
Bit depth: 16 bits
Compression mode: Lossy
Stream size: 276 MiB (12%)
Title: Russian AC3 384kbs 5.1 ch
Language: Russian







Поделиться:




реклама партнёра


Вернуться к началу
 Профиль Отправить личное сообщение  
 
   Похожие торренты   Автор   Торрент   Размер 
В этой теме нет новых непрочитанных сообщений. Красная шапочка  / Little Red Riding Hood (Рене Перез) [ужасы, фэнтези, 2015] HDRip, dvo

Dracon

8 | 3

1.36 ГБ

В этой теме нет новых непрочитанных сообщений. Красная шапочка  / Little Red Riding Hood (Рене Перез) [ужасы, фэнтези, 2015] BDRip 720p, dvo

Dracon

10 | 4

3.09 ГБ

В этой теме нет новых непрочитанных сообщений. Маленькая мертвая шапочка / Little Dead Rotting Hood [ужасы, 2016] HDRip, Dvo

salma3

152 | 9

1.45 ГБ

В этой теме нет новых непрочитанных сообщений. Зажги меня / Плюш / Plush (Кэтрин Хардвик) [Триллер, драма, 2013] HDRip, Mvo

Dracon

282 | 12

1.46 ГБ

В этой теме нет новых непрочитанных сообщений. Маленькая мертвая шапочка / Little Dead Rotting Hood [ужасы, 2016] BDRip 720p, Dvo

salma3

577 | 59

3.39 ГБ

В этой теме нет новых непрочитанных сообщений. Мост / Bron/Broen [S03] (Хенрик Георгссон, Шарлотта Зилинг, Кэтрин Уиндфельд) [2015, триллер, криминал, детектив, HDRip | Amedia]

Dracon

246 | 65

7.2 ГБ

В этой теме нет новых непрочитанных сообщений. Fairytale Griddlers: Red Riding Hood Secret [Logic, 3D, 2017] [Пиратка]

lavega

1 | 0

130.27 МБ


Начать новую тему Ответить на тему  [ 1 сообщение ] 




Для Мосгорсуда, Роскомнадзора и рекламодателей:: mosgorsud-torrent[собачка]yandex.ru