Торрент файл
скачать торрент магнет ссылка Добавлен: 22 янв 2012, 15:12
Размер: 2.08 ГБ
Сидеров: 190
Личеров: 14
Автор

СообщениеДобавлено: 22 янв 2012, 15:12 

Не в сети
Супермодератор
Аватара пользователя
Дата регистрации:
11 апр 2010, 18:10
Спасибо: 5801 / 7
Сообщения: 56779
Легенда о пианисте / La leggenda del pianista sull'oceano



Перевод: Профессиональный (многоголосый, закадровый), cубтитры: отсутствуют
Формат: HDRip-AVC, MKV, H.264, AC3
Страна: Италия
Режиссер: Джузеппе Торнаторе
Жанр: фэнтези, драма, мелодрама, музыка
Продолжительность: 02:49:44
Год выпуска: 1998

В ролях: Тим Рот, Прюитт Тэйлор Винс, Мелани Тьерри, Билл Нанн, Кларенс Уильямс III, Питер Воэн, Ниал О`Брайэн, Габриэль Лавиа, Вернон Нерс, Альберто Васкес

Описание: Началось все с того, что в первый день 20-го столетия на пароходе «Вирджиния» в коробке из-под лимонов был найден младенец. Мальчик вырос и провел всю свою жизнь на громадном океанском лайнере, курсирующем между Америкой и Европой, ни разу не сойдя на берег.

Загадочным образом научившись играть на рояле, Дэнни Будманн Т. Д. Лемон 1900-й стал настоящим виртуозом и развлекал публику, играя в ресторанном оркестре. С ним связаны потрясающие истории, а его жизнь превратилась в красивую легенду…




Видео: 1072 x 456 (2.351), 23.976 fps, AVC, х264, High@L4.1, ~ 1301 Kbps Kbps, 0.111 bit/pixel
Аудио: 48 kHz, AC3 Dolby Digital, 3/2 (L,C,R,l,r) + LFE ch, ~448 kbps


Рип: jeenart
General
Unique ID: 206413750418241501517447375643921598835 (0x9B49D7A01478C713B232A445BE2FC973)
Complete name: F:\Мои релизы\Все релизы 8\legenda_ o_pianiste_[tfile.ru].mkv
Format: Matroska
File size: 2.08 GiB
Duration: 2h 49mn
Overall bit rate: 1 751 Kbps
Encoded date: UTC 2011-06-01 07:02:11
Writing application: mkvmerge v4.6.0 ('Still Crazy After All These Years') сборка от Apr1 2011 21:01:49
Writing library: libebml v1.2.0 + libmatroska v1.1.0

Video
ID: 1
Format: AVC
Format/Info: Advanced Video Codec
Format profile: High@L4.1
Format settings, CABAC: Yes
Format settings, ReFrames: 3 frames
Codec ID: V_MPEG4/ISO/AVC
Duration: 2h 49mn
Bit rate: 1 301 Kbps
Width: 1 072 pixels
Height: 456 pixels
Display aspect ratio: 2.35:1
Frame rate: 23.976 fps
Color space: YUV
Chroma subsampling: 4:2:0
Bit depth: 8 bits
Scan type: Progressive
Bits/(Pixel*Frame): 0.111
Stream size: 1.50 GiB (72%)
Writing library: x264 core 115 r1937 aa21558
Encoding settings: cabac=1 / ref=3 / deblock=1:-1:-1 / analyse=0x3:0x113 / me=dia / subme=7 / psy=1 / psy_rd=1.00:0.10 / mixed_ref=1 / me_range=16 / chroma_me=1 / trellis=1 / 8x8dct=1 / cqm=0 / deadzone=21,11 / fast_pskip=1 / chroma_qp_offset=-3 / threads=6 / sliced_threads=0 / nr=0 / decimate=1 / interlaced=0 / bluray_compat=0 / constrained_intra=0 / bframes=1 / b_pyramid=0 / b_adapt=0 / b_bias=0 / direct=0 / weightb=1 / open_gop=0 / weightp=0 / keyint=250 / keyint_min=23 / scenecut=40 / intra_refresh=0 / rc_lookahead=40 / rc=2pass / mbtree=1 / bitrate=1301 / ratetol=1.0 / qcomp=0.60 / qpmin=0 / qpmax=69 / qpstep=4 / cplxblur=20.0 / qblur=0.5 / ip_ratio=1.40 / aq=1:1.00

Audio
ID: 2
Format: AC-3
Format/Info: Audio Coding 3
Mode extension: CM (complete main)
Codec ID: A_AC3
Duration: 2h 49mn
Bit rate mode: Constant
Bit rate: 448 Kbps
Channel(s): 6 channels
Channel positions: Front: L C R, Side: L R, LFE
Sampling rate: 48.0 KHz
Bit depth: 16 bits
Compression mode: Lossy
Stream size: 544 MiB (26%)



















Поделиться:




реклама партнёра


Вернуться к началу
 Профиль Отправить личное сообщение  
 
   Похожие торренты   Автор   Торрент   Размер 
В этой теме нет новых непрочитанных сообщений. Незнакомка / La sconosciuta (Джузеппе Торнаторе / Giuseppe Tornatore) [2006г., Италия, триллер, драма, детектив, BDRip] MVO

Alfredovich

88 | 1

2.18 ГБ

В этой теме нет новых непрочитанных сообщений. Новый кинотеатр «Парадизо» / Nuovo Cinema Paradiso (Джузеппе Торнаторе / Giuseppe Tornatore) [1988г., драма, DVDRip-AVC / Full Director's Cut version] avo

Alfredovich

17 | 3

1.97 ГБ

В этой теме нет новых непрочитанных сообщений. Синдбад: Легенда семи морей / Sinbad of the Seven Seas [фэнтези, приключения, 1989] HDRip, Mvo

salma3

9 | 6

1.52 ГБ

В этой теме нет новых непрочитанных сообщений. Феи: Легенда о чудовище / Legend of the NeverBeast (Стив Лотер) [мультфильм, фэнтези, приключения, семейный, 2014] HDRip, dub [чистый звук]

Dracon

565 | 5

1.37 ГБ

В этой теме нет новых непрочитанных сообщений. Феи: Легенда о чудовище / Legend of the NeverBeast (Стив Лотер) [мультфильм, фэнтези, приключения, семейный, 2014] HDRip, Dub [iTunes Russia]

Dracon

295 | 10

1.37 ГБ

В этой теме нет новых непрочитанных сообщений. Легенда Лонгвуда / The Legend of Longwood [драма, приключения, семейный, фэнтези, 2014] HDTVRip, Mvo [официальный звук]

salma3

95 | 24

1.37 ГБ

В этой теме нет новых непрочитанных сообщений. Легенда Восьми Самураев / Satomi hakken-den [Фэнтези, драма, мелодрама, приключения, 1983] Blu-ray Remux 1080p, Avo+Sub

salma3

2 | 12

41.58 ГБ


Начать новую тему Ответить на тему  [ 1 сообщение ] 




Для Мосгорсуда, Роскомнадзора и рекламодателей:: mosgorsud-torrent[собачка]yandex.ru