Торрент файл
скачать торрент магнет ссылка Добавлен: 22 янв 2012, 15:07
Размер: 2.11 ГБ
Сидеров: 45
Личеров: 10
Автор

СообщениеДобавлено: 22 янв 2012, 15:07 

Не в сети
Супермодератор
Аватара пользователя
Дата регистрации:
11 апр 2010, 18:10
Спасибо: 5801 / 7
Сообщения: 56779
Необычайные приключения Адель / Les aventures extraordinaires d'Adеle Blanc-Sec


Перевод: Профессиональный (полное дублирование), cубтитры: отсутствуют
Формат: HDRip-AVC, MKV, H.264, AC3
Страна: Франция
Режиссер: Люк Бессон
Жанр: фэнтези, боевик, детектив, приключения
Продолжительность: 01:46:54
Год выпуска: 2010

В ролях: Матье Амальрик, Луиз Бургуэн, Филипп Наон, Николас Жиро, Жилль Лелуш, Фредерик Бел, Жан-Поль Рув, Мусса Мааскри, Эрик Нэггар

Описание: 1912 год. Бесстрашная юная журналистка Адель Блан-Сек готова пойти на все ради достижения цели, даже если для этого ей предстоит отправиться в Египет и столкнуться с мумиями всех форм и размеров. А в это время Париж охвачен паникой: каким-то невероятным образом в музее естествознания из яйца птеродактиля, возраст которого насчитывает 136 миллионов лет, вылупливается детеныш и начинает терроризировать жителей города. Но опасность нисколько не тревожит Адель, готовую с головой броситься в водоворот самых невероятных приключений.



Видео: 1072 x 456 (2.35:1), 23.976 fps, AVC, х264, High@L4.1, ~ 2445 Kbps, 0.209 bit/pixel
Аудио: 48 kHz, AC3 Dolby Digital, 3/2 (L,C,R,l,r) + LFE ch, ~384 kbps


Рип: jeenart

General
Unique ID: 229534986982636855051265387890340861551 (0xACAED499C6B8C98BAFED2EEAA0C1166F)
Complete name: F:\Мои релизы\Все релизы 9\adel_[tfile.ru].mkv
Format: Matroska
File size: 2.11 GiB
Duration: 1h 46mn
Overall bit rate: 2 830 Kbps
Encoded date: UTC 2011-06-24 08:18:29
Writing application: mkvmerge v4.6.0 ('Still Crazy After All These Years') сборка от Apr1 2011 21:01:49
Writing library: libebml v1.2.0 + libmatroska v1.1.0

Video
ID: 1
Format: AVC
Format/Info: Advanced Video Codec
Format profile: High@L4.1
Format settings, CABAC: Yes
Format settings, ReFrames: 3 frames
Codec ID: V_MPEG4/ISO/AVC
Duration: 1h 46mn
Bit rate: 2 445 Kbps
Width: 1 072 pixels
Height: 456 pixels
Display aspect ratio: 2.35:1
Frame rate: 23.976 fps
Color space: YUV
Chroma subsampling: 4:2:0
Bit depth: 8 bits
Scan type: Progressive
Bits/(Pixel*Frame): 0.209
Stream size: 1.78 GiB (84%)
Writing library: x264 core 115 r1937 aa21558
Encoding settings: cabac=1 / ref=3 / deblock=1:-1:-1 / analyse=0x3:0x113 / me=dia / subme=7 / psy=1 / psy_rd=1.00:0.10 / mixed_ref=1 / me_range=16 / chroma_me=1 / trellis=1 / 8x8dct=1 / cqm=0 / deadzone=21,11 / fast_pskip=1 / chroma_qp_offset=-3 / threads=6 / sliced_threads=0 / nr=0 / decimate=1 / interlaced=0 / bluray_compat=0 / constrained_intra=0 / bframes=1 / b_pyramid=0 / b_adapt=0 / b_bias=0 / direct=0 / weightb=1 / open_gop=0 / weightp=0 / keyint=250 / keyint_min=23 / scenecut=40 / intra_refresh=0 / rc_lookahead=40 / rc=2pass / mbtree=1 / bitrate=2445 / ratetol=1.0 / qcomp=0.60 / qpmin=0 / qpmax=69 / qpstep=4 / cplxblur=20.0 / qblur=0.5 / ip_ratio=1.40 / aq=1:1.00

Audio
ID: 2
Format: AC-3
Format/Info: Audio Coding 3
Mode extension: CM (complete main)
Codec ID: A_AC3
Duration: 1h 46mn
Bit rate mode: Constant
Bit rate: 384 Kbps
Channel(s): 6 channels
Channel positions: Front: L C R, Side: L R, LFE
Sampling rate: 48.0 KHz
Bit depth: 16 bits
Compression mode: Lossy
Stream size: 294 MiB (14%)




















Поделиться:




реклама партнёра


Вернуться к началу
 Профиль Отправить личное сообщение  
 
   Похожие торренты   Автор   Торрент   Размер 
В этой теме нет новых непрочитанных сообщений. Новые приключения Аладдина / Les nouvelles aventures d'Aladin [Комедия, 2015] HDRip, Dub [iTunes]

Dracon

2499 | 542

1.37 ГБ

В этой теме нет новых непрочитанных сообщений. Приключения Раввина Якова / Les Aventures de Rabbi Jacob [Комедия, приключения, 1973] BDRip 720p, Dub+2Mvo+Dvo+Avo+Sub

salma3

47 | 5

5.64 ГБ

В этой теме нет новых непрочитанных сообщений. Приключения Раввина Якова / Les Aventures de Rabbi Jacob [Комедия, приключения, 1973] BDRip 1080p, Dub+2Mvo+Dvo+Avo+Sub

salma3

13 | 2

11.62 ГБ

В этой теме нет новых непрочитанных сообщений. Люси / Lucy (Люк Бессон) [2014, Люк Бессон, WEBRip 720p | Чистый звук] Dub

Nickolas3435

8880 | 67

1.68 ГБ

В этой теме нет новых непрочитанных сообщений. Жизнь Адель / La vie d'Adèle - Chapitres 1 et 2 [Драма, мелодрама, 2013] HDRip, Dub [Лицензия]

Dracon

237 | 6

2.19 ГБ

В этой теме нет новых непрочитанных сообщений. Новые приключения Аладдина / Les nouvelles aventures d'Aladin [Комедия, 2015] BDRip 720p, dub [iTunes]

Dracon

639 | 47

4.66 ГБ

В этой теме нет новых непрочитанных сообщений. Как девушке выиграть свой первый бой (Жанна Д’Арк / Joan of Arc, Люк Бессон, 1999) Меняйлов [2013, Фильм о фильме, HDRip]

vairgin

0 | 3

439.73 МБ


Начать новую тему Ответить на тему  [ 1 сообщение ] 




Для Мосгорсуда, Роскомнадзора и рекламодателей:: mosgorsud-torrent[собачка]yandex.ru