Торрент файл
скачать торрент магнет ссылка Добавлен: 22 янв 2012, 15:06
Размер: 2.1 ГБ
Сидеров: 181
Личеров: 15
Автор

СообщениеДобавлено: 22 янв 2012, 15:06 

Не в сети
Супермодератор
Аватара пользователя
Дата регистрации:
11 апр 2010, 18:10
Спасибо: 5802 / 7
Сообщения: 56779
Водный мир / Waterworld


Перевод: Профессиональный (полное дублирование), cубтитры: отсутствуют
Формат: HDRip-AVC, MKV, H.264, AC3
Страна: США
Режиссер: Кевин Рейнольдс, Кевин Костнер
Жанр: фантастика, боевик
Продолжительность: 02:15:11
Год выпуска: 1995
В ролях: Кевин Костнер, Сэб Шимоно, Деннис Хоппер, Джинн Трипплхорн, Тина Мэджорино, Майкл Джитер, Джерард Мерфи, Р.Д. Колл, Ким Коутс, Джон Флек, Роберт Джой, Джек Блэк, Джон Тоулз-Бей, Зитто Кэзанн, Зэйкс Мокэй, Роберт Ласардо
Описание: В далеком будущем полярные снега растаяли, покрыв всю Землю водой. Авторы погружают нас в фантастический мир немногочисленных людей, живущих на воде, где самым дорогим являются пресная вода, земля, еда, сигареты и т. п.
«Курильщики» убивают, грабят, обращают в рабство — используют двигатели внутреннего сгорания. Все остальные пытаются выжить, кто как может, а Кевин Костнер плавает сам по себе на своей фантастической лодке, но объединяет их всех одно — все они ищут остров.
В одной из колоний живут очень красивая женщина и девочка с татуировкой на спине. А татуировка эта — часть карты, на которой и указан этот остров. Естественно, за ней и охотятся «курильщики»…




Видео: 1152 x 624 (1.85:1), 23.976 fps, AVC, х264, High@L4.1, ~ 1842 Kbps, 0.107 bit/pixel
Аудио: 48 kHz, AC3 Dolby Digital, 3/2 (L,C,R,l,r) + LFE ch, ~384 kbps


Рип: jeenart




General
Unique ID: 170329743186274084584976207151722549556 (0x802450B655F616D0BB42A3EF043E5134)
Complete name: F:\Мои релизы\Все релизы 10\vodnii_mir_[tfile.ru].mkv
Format: Matroska
File size: 2.10 GiB
Duration: 2h 15mn
Overall bit rate: 2 227 Kbps
Encoded date: UTC 2011-06-30 00:52:15
Writing application: mkvmerge v4.6.0 ('Still Crazy After All These Years') сборка от Apr1 2011 21:01:49
Writing library: libebml v1.2.0 + libmatroska v1.1.0

Video
ID: 1
Format: AVC
Format/Info: Advanced Video Codec
Format profile: High@L4.1
Format settings, CABAC: Yes
Format settings, ReFrames: 3 frames
Codec ID: V_MPEG4/ISO/AVC
Duration: 2h 15mn
Bit rate: 1 842 Kbps
Width: 1 152 pixels
Height: 624 pixels
Display aspect ratio: 16:9
Frame rate: 23.976 fps
Color space: YUV
Chroma subsampling: 4:2:0
Bit depth: 8 bits
Scan type: Progressive
Bits/(Pixel*Frame): 0.107
Stream size: 1.70 GiB (81%)
Writing library: x264 core 115 r1937 aa21558
Encoding settings: cabac=1 / ref=3 / deblock=1:-1:-1 / analyse=0x3:0x113 / me=dia / subme=7 / psy=1 / psy_rd=1.00:0.10 / mixed_ref=1 / me_range=16 / chroma_me=1 / trellis=1 / 8x8dct=1 / cqm=0 / deadzone=21,11 / fast_pskip=1 / chroma_qp_offset=-3 / threads=6 / sliced_threads=0 / nr=0 / decimate=1 / interlaced=0 / bluray_compat=0 / constrained_intra=0 / bframes=1 / b_pyramid=0 / b_adapt=0 / b_bias=0 / direct=0 / weightb=1 / open_gop=0 / weightp=0 / keyint=250 / keyint_min=23 / scenecut=40 / intra_refresh=0 / rc_lookahead=40 / rc=2pass / mbtree=1 / bitrate=1842 / ratetol=1.0 / qcomp=0.60 / qpmin=0 / qpmax=69 / qpstep=4 / cplxblur=20.0 / qblur=0.5 / ip_ratio=1.40 / aq=1:1.00

Audio
ID: 2
Format: AC-3
Format/Info: Audio Coding 3
Mode extension: CM (complete main)
Codec ID: A_AC3
Duration: 2h 15mn
Bit rate mode: Constant
Bit rate: 384 Kbps
Channel(s): 6 channels
Channel positions: Front: L C R, Side: L R, LFE
Sampling rate: 48.0 KHz
Bit depth: 16 bits
Compression mode: Lossy
Stream size: 371 MiB (17%)
























Поделиться:




реклама партнёра


Вернуться к началу
 Профиль Отправить личное сообщение  
 
   Похожие торренты   Автор   Торрент   Размер 
В этой теме нет новых непрочитанных сообщений. Супружеский долг / Satisfaction (US) [02х01-06 из 10] (Майкл Смит, Кевин Брей) [2015, Майкл Смит, Кевин Брей, WEB-DLRip | BaibaKo]

Dracon

49 | 53

3.34 ГБ

В этой теме нет новых непрочитанных сообщений. Чёрное море /  Black Sea (Кевин МакДональд) [Триллер, приключения, 2014] HDRip, Mvo [Лицензия]

Dracon

520 | 22

1.46 ГБ

В этой теме нет новых непрочитанных сообщений. Джезабель / Jessabelle (Кевин Гротерт) [Ужасы, Триллер, 2014] HDRip, dub [чистый звук]

Dracon

19 | 3

1.37 ГБ

В этой теме нет новых непрочитанных сообщений. Чёрное море / Black Sea (Кевин МакДональд) [Триллер, приключения, 2014] HDRip, Mvo [Лицензия]

Dracon

12 | 3

2.06 ГБ

В этой теме нет новых непрочитанных сообщений. Глаза звезды / Starry Eyes (Кевин Колш, Деннис Уидмайер) [ужасы, 2014] HDRip, dvo

Dracon

6 | 2

1.36 ГБ

В этой теме нет новых непрочитанных сообщений. Видения / Visions (Кевин Гротерт) [боевик, приключения, 2015] WEB-DLRip, dub [Чистый звук]

Dracon

10782 | 393

1.43 ГБ

В этой теме нет новых непрочитанных сообщений. Видения / Visions (Кевин Гротерт) [боевик, приключения, 2015] WEB-DL 720p, dub [Чистый звук]

Dracon

6877 | 219

2.58 ГБ


Начать новую тему Ответить на тему  [ 1 сообщение ] 




Для Мосгорсуда, Роскомнадзора и рекламодателей:: mosgorsud-torrent[собачка]yandex.ru