Торрент файл
скачать торрент магнет ссылка Добавлен: 22 янв 2012, 15:06
Размер: 2.09 ГБ
Сидеров: 19
Личеров: 11
Автор

СообщениеДобавлено: 22 янв 2012, 15:06 

Не в сети
Супермодератор
Аватара пользователя
Дата регистрации:
11 апр 2010, 18:10
Спасибо: 5801 / 7
Сообщения: 56779
Гибель титанов / Мега-Акула против Крокозавра / Mega Shark vs Crocosaurus

Перевод: Профессиональный (многоголосый, закадровый)[ лицензия], cубтитры: отсутствуют
Формат: DVDRip-AVC, MKV, H.264, AC3
Страна: США
Режиссер: Кристофер Рэй
Жанр: боевик, ужасы, фантастика
Продолжительность: 01:24:09
Год выпуска: 2010

В ролях: Гари Стретч , Джэлил Уайт , Сара Ливинг , Роберт Пикардо , Джералд Уэбб , Брэд Бентон , Ханна Коули , Стив Мэйсон ,Роберт Р. Шафер

Описание: Гигантская акула мегалодон выживает после схватки с гигантским осьминогом, и теперь ей предстоит встреча с королем африканского континента — Крокозавром!



Видео: 720x576@1024x576, 25 fps, AVC, х264, High@L3.2 ~2917 kbps avg, 0.281 bit/pixel
Аудио#1: Русский:48 kHz, AC3 Dolby Digital, 3/2 (L,C,R,l,r) + LFE ch, ~384.00 kbps avg[Профессиональный (многоголосый, закадровый)]
Аудио#2: Английский:48 kHz, AC3 Dolby Digital,2 ch(Front: L R) ,~192.00 kbps avg[Оригинал]




General
Unique ID: 251388205472266949707377055260102169146 (0xBD1F9B754AB428C48698260EC161123A)
Complete name: C:\Documents and Settings\Admin.MICROSOF-42B712\Мои документы\Downloads\Новинки\Gibel.Titanov.mkv
Format: Matroska
File size: 2.09 GiB
Duration: 1h 24mn
Overall bit rate: 3 564 Kbps
Movie name: Автор рипа: MaxVeLL | R.G.DHT-Movies
Encoded date: UTC 2011-06-30 07:10:45
Writing application: mkvmerge v4.8.0 ('I Got The...') зібрано May 24 2011 03:12:58
Writing library: libebml v1.2.0 + libmatroska v1.1.0

Video
ID: 1
Format: AVC
Format/Info: Advanced Video Codec
Format profile: High@L3.2
Format settings, CABAC: Yes
Format settings, ReFrames: 5 frames
Codec ID: V_MPEG4/ISO/AVC
Duration: 1h 24mn
Bit rate: 2 917 Kbps
Width: 720 pixels
Height: 576 pixels
Display aspect ratio: 16:9
Original display aspect ratio: 5:4
Frame rate: 25.000 fps
Standard: NTSC
Color space: YUV
Chroma subsampling: 4:2:0
Bit depth: 8 bits
Scan type: Progressive
Bits/(Pixel*Frame): 0.281
Stream size: 1.71 GiB (82%)
Title: Рип от MaxVeLL
Color primaries: BT.601-6 525, BT.1358 525, BT.1700 NTSC, SMPTE 170M
Transfer characteristics: BT.601-6 525, BT.601-6 625, BT.1358 525, BT.1358 625, BT.1700 NTSC, SMPTE 170M
Matrix coefficients: BT.601-6 525, BT.1358 525, BT.1700 NTSC, SMPTE 170M

Audio #1
ID: 2
Format: AC-3
Format/Info: Audio Coding 3
Mode extension: CM (complete main)
Codec ID: A_AC3
Duration: 1h 24mn
Bit rate mode: Constant
Bit rate: 384 Kbps
Channel(s): 6 channels
Channel positions: Front: L C R, Side: L R, LFE
Sampling rate: 48.0 KHz
Bit depth: 16 bits
Compression mode: Lossy
Stream size: 231 MiB (11%)
Language: Russian

Audio #2
ID: 3
Format: AC-3
Format/Info: Audio Coding 3
Mode extension: CM (complete main)
Codec ID: A_AC3
Duration: 1h 24mn
Bit rate mode: Constant
Bit rate: 192 Kbps
Channel(s): 2 channels
Channel positions: Front: L R
Sampling rate: 48.0 KHz
Bit depth: 16 bits
Compression mode: Lossy
Stream size: 116 MiB (5%)
Language: English













Поделиться:




реклама партнёра


Вернуться к началу
 Профиль Отправить личное сообщение  
 
   Похожие торренты   Автор   Торрент   Размер 
В этой теме нет новых непрочитанных сообщений. Мега Акула против Колосса / Mega Shark vs. Kolossus (Кристофер Рэй) [2015, ужасы, фантастика, боевик, триллер, BDRip 720p] avo

Nickolas3435

217 | 12

3.68 ГБ

В этой теме нет новых непрочитанных сообщений. Мега-акула против Меха-акулы / Mega Shark vs. Mecha Shark [фантастика, боевик, триллер, 2014] HDRip, Avo

salma3

508 | 24

1.37 ГБ

В этой теме нет новых непрочитанных сообщений. Мега-акула против Меха-акулы / Mega Shark vs. Mecha Shark (Эмиль Эдвин Смит) [фантастика, боевик, триллер, 2014] HDRip, avo

Dracon

0 | 0

1.37 ГБ

В этой теме нет новых непрочитанных сообщений. Мега Акула против Колосса / Mega Shark vs. Kolossus [фантастика, боевик, триллер, ужасы, 2015] HDRip, Avo

salma3

45 | 2

1.2 ГБ

В этой теме нет новых непрочитанных сообщений. Нападение трёхголовой акулы / 3-Headed Shark Attack [ужасы, фантастика, боевик, 2015] BDRip 1080p, Avo

salma3

22 | 6

6.79 ГБ

В этой теме нет новых непрочитанных сообщений. Угроза из глубины / Атака двухголовой акулы / 2-Headed Shark Attack [Ужасы, фантастика, боевик, 2012] BDRip 1080p, Mvo

salma3

50 | 4

6.49 ГБ

В этой теме нет новых непрочитанных сообщений. Стая акул / Shark Swarm [ужасы, боевик, триллер, драма, 2008 ] DVDRip, Mvo

salma3

12 | 8

2.05 ГБ


Начать новую тему Ответить на тему  [ 1 сообщение ] 




Для Мосгорсуда, Роскомнадзора и рекламодателей:: mosgorsud-torrent[собачка]yandex.ru