Торрент файл
скачать торрент магнет ссылка Добавлен: 22 янв 2012, 15:03
Размер: 2.22 ГБ
Сидеров: 79
Личеров: 11
Автор

СообщениеДобавлено: 22 янв 2012, 15:03 

Не в сети
Супермодератор
Аватара пользователя
Дата регистрации:
11 апр 2010, 18:10
Спасибо: 5801 / 7
Сообщения: 56779
Пастырь / Priest

Слоган: «И один в поле воин»

Перевод: Профессиональный (полное дублирование) [Лицензия], cубтитры: отсутствуют
Формат: DVDRip-AVC, MKV, H.264, AC3
Страна: США

Режиссер: Скотт Чарльз Стюарт
Жанр: ужасы, фантастика, боевик, триллер
Продолжительность: 01:23:46

Год выпуска: 2011
В ролях: Пол Беттани, Карл Урбан, Кэм Жиганде, Мэгги Кью, Лили Коллинз, Брэд Дуриф, Стивен Мойер, Кристофер Пламмер, Алан Дэйл, Медкен Эмик и др.

Описание: Далекое будущее. Миром правят религия и церковь. Священник, нарушая все церковные запреты, пытается выследить банду вампиров, похитивших его племянницу. В поисках ему помогают шериф и монахиня.



Видео: 720x424 @ 1024x424, 25.000 fps, AVC (H264), High@L4.1, ~2825 kbps avg, 0.370 bit/pixel
Аудио #1: Русский: 48 kHz, AC3 Dolby Digital, 6 channels, ~448.00 kbps avg [Профессиональный (полное дублирование)]
Аудио #2: Украинский: 48 kHz, AC3 Dolby Digital, 6 channels, ~448.00 kbps avg [Профессиональный (полное дублирование)]

Доп. информация:
Релиз на Blu-Ray: 22 августа 2011



Формат: Matroska
Размер файла: 2,22 Гбайт
Продолжительность: 1 ч. 23 м.
Общий поток: 3796 Кбит/сек
Название фильма: Автор рипа: MaxVeLL | R.G.DHT-Movies
Дата кодирования: UTC 2011-06-11 20:38:03
Программа кодирования: mkvmerge v4.8.0 ('I Got The...') зібрано May 24 2011 03:12:58
Библиотека кодирования: libebml v1.2.0 + libmatroska v1.1.0

Видео
Идентификатор: 1
Формат: AVC
Формат/Информация: Advanced Video Codec
Профиль формата: High@L4.1
Параметр CABAC формата: Да
Параметр ReFrames формата: 5 кадров
Параметры GOP формата: M=4, N=33
Идентификатор кодека: V_MPEG4/ISO/AVC
Продолжительность: 1 ч. 23 м.
Битрейт: 2825 Кбит/сек
Ширина: 720 пикс.
Высота: 424 пикс.
Соотношение сторон: 2,40:1
Соотношение сторон в оригинале: 1,698
Частота кадров: 25,000 кадр/сек
Стандарт вещания: NTSC
Цветовое пространство: YUV
Подвыборка цветности: 4:2:0
Битовая глубина: 8 бит
Тип развёртки: Прогрессивная
Бит/(Пиксели*Кадры): 0.370
Размер потока: 1,65 Гбайт (74%)
Язык: English
Основные цвета: BT.601-6 525, BT.1358 525, BT.1700 NTSC, SMPTE 170M
Характеристики трансфера: BT.601-6 525, BT.601-6 625, BT.1358 525, BT.1358 625, BT.1700 NTSC, SMPTE 170M
Коэффициенты матрицы: BT.601-6 525, BT.1358 525, BT.1700 NTSC, SMPTE 170M

Аудио #1
Идентификатор: 2
Формат: AC-3
Формат/Информация: Audio Coding 3
Расширение режима: CM (complete main)
Идентификатор кодека: A_AC3
Продолжительность: 1 ч. 23 м.
Вид битрейта: Постоянный
Битрейт: 448 Кбит/сек
Каналы: 6 каналов
Расположение каналов: Front: L C R, Side: L R, LFE
Частота: 48,0 КГц
Битовая глубина: 16 бит
Метод сжатия: С потерями
Размер потока: 268 Мбайт (12%)
Заголовок: DUB
Язык: Russian

Аудио #2
Идентификатор: 3
Формат: AC-3
Формат/Информация: Audio Coding 3
Расширение режима: CM (complete main)
Идентификатор кодека: A_AC3
Продолжительность: 1 ч. 23 м.
Вид битрейта: Постоянный
Битрейт: 448 Кбит/сек
Каналы: 6 каналов
Расположение каналов: Front: L C R, Side: L R, LFE
Частота: 48,0 КГц
Битовая глубина: 16 бит
Метод сжатия: С потерями
Размер потока: 268 Мбайт (12%)
Заголовок: DUB
Язык: Ukrainian








Поделиться:




реклама партнёра


Вернуться к началу
 Профиль Отправить личное сообщение  
 
   Похожие торренты   Автор   Торрент   Размер 
В этой теме нет новых непрочитанных сообщений. Доминион / Dominion [02x01-13 из 13] (Скотт Чарльз Стюарт) [ужасы, фантастика, фэнтези, боевик, драма, 2015] WEB-DL 720p, Mvo [NewStudio]

Dracon

36 | 53

18.18 ГБ

В этой теме нет новых непрочитанных сообщений. Доминион / Dominion [02х01-09 из 13] (Скотт Чарльз Стюарт) [ужасы, фантастика, фэнтези, боевик, драма, 2015] WEB-DL 1080p, Mvo [LostFilm]

Dracon

0 | 7

15.9 ГБ

В этой теме нет новых непрочитанных сообщений. Доминион / Dominion [01х01] (Скотт Чарльз Стюарт) [2014, ужасы, фантастика, фэнтези, боевик, драма, WEB-DLRip | LostFilm]

Nickolas3435

811 | 12

723.69 МБ

В этой теме нет новых непрочитанных сообщений. Доминион / Dominion [01х01-06 из 13] (Скотт Чарльз Стюарт) [2014, ужасы, фантастика, фэнтези, боевик, драма, WEB-DLRip | LostFilm]

Nickolas3435

83 | 35

2.53 ГБ

В этой теме нет новых непрочитанных сообщений. Доминион / Dominion [01х01-03 из 13] (Скотт Чарльз Стюарт) [2014, ужасы, фантастика, фэнтези, боевик, драма, WEB-DL 1080p | BaibaKo]

Nickolas3435

84 | 41

5.87 ГБ

В этой теме нет новых непрочитанных сообщений. Доминион / Dominion [02х01-13 из 13] (Скотт Чарльз Стюарт) [ужасы, фантастика, фэнтези, боевик, драма, 2015] WEB-DL 1080p, Mvo [NewStudio]

Dracon

9 | 6

22.31 ГБ

В этой теме нет новых непрочитанных сообщений. Доминион / Dominion [01х01-08 из 08] (Скотт Чарльз Стюарт) [2014, ужасы, фантастика, фэнтези, боевик, драма, HDTVRip | Kerob]

Nickolas3435

146 | 119

3.72 ГБ


Начать новую тему Ответить на тему  [ 1 сообщение ] 




Для Мосгорсуда, Роскомнадзора и рекламодателей:: mosgorsud-torrent[собачка]yandex.ru