Торрент файл
скачать торрент магнет ссылка Добавлен: 22 янв 2012, 15:03
Размер: 1.46 ГБ
Сидеров: 100
Личеров: 8
Автор

СообщениеДобавлено: 22 янв 2012, 15:03 

Не в сети
Супермодератор
Аватара пользователя
Дата регистрации:
11 апр 2010, 18:10
Спасибо: 5803 / 7
Сообщения: 56779
Пастырь / Priest

Перевод: Профессиональный (полное дублирование), cубтитры: отсутствуют
Формат: DVDRip-AVC, MKV, H.264, AC3
Страна: США
Режиссер: Скотт Чарльз Стюарт
Жанр: ужасы, фантастика, боевик, триллер
Продолжительность: 01:23:46
Год выпуска: 2011

В ролях: Пол Беттани, Карл Урбан, Кэм Жиганде, Мэгги Кью, Лили Коллинз, Брэд Дуриф, Стивен Мойер, Кристофер Пламмер, Алан Дэйл, Медкен Эмик

Описание: Далекое будущее. Миром правят религия и церковь. Священник, нарушая все церковные запреты, пытается выследить банду вампиров, похитивших его племянницу. В поисках ему помогают шериф и монахиня.

[/field]

Видео: 720x424 @ 1024x424, 25.000 fps, AVC,х264, High@L4.1, ~1589 kbps kbps avg, it/pixel

Аудио#1:Русский: 48 kHz, AC3 Dolby Digital, 6 channels, ~448.00 kbps avg [Профессиональный (полное дублирование)]

Аудио#2: Украинский: 48 kHz, AC3 Dolby Digital, 6 channels, ~448.00 kbps avg [Профессиональный (полное дублирование)]

General
Unique ID: 209673582263961717345521086169358500093 (0x9DBDA9BE7DAB7E19B6524AEC8ADF80FD)
Complete name: E:\Загрузки\Pastyr.2011.DUB.DVDRip.x264_Vaippp.mkv
Format: Matroska
File size: 1.46 GiB
Duration: 1h 23mn
Overall bit rate: 2 487 Kbps
Movie name: Pastyr / 2011 / Release by Vaippp
Encoded date: UTC 2011-06-02 15:50:05
Writing application: mkvmerge v4.8.0 ('I Got The...') сборка от May 24 2011 03:12:58
Writing library: libebml v1.2.0 + libmatroska v1.1.0

Video
ID: 1
Format: AVC
Format/Info: Advanced Video Codec
Format profile: High@L3.1
Format settings, CABAC: Yes
Format settings, ReFrames: 11 frames
Format settings, GOP: M=1, N=2
Codec ID: V_MPEG4/ISO/AVC
Duration: 1h 23mn
Bit rate: 1 589 Kbps
Width: 720 pixels
Height: 424 pixels
Display aspect ratio: 2.40:1
Frame rate: 25.000 fps
Color space: YUV
Chroma subsampling: 4:2:0
Bit depth: 8 bits
Scan type: Progressive
Bits/(Pixel*Frame): 0.208
Stream size: 924 MiB (62%)
Title: DVDRip by Vaippp
Writing library: x264 core 114 r1924 08d04a4
Encoding settings: cabac=1 / ref=11 / deblock=1:-2:-1 / analyse=0x3:0x133 / me=umh / subme=9 / psy=1 / psy_rd=1.05:0.15 / mixed_ref=1 / me_range=32 / chroma_me=1 / trellis=1 / 8x8dct=1 / cqm=0 / deadzone=21,11 / fast_pskip=0 / chroma_qp_offset=-3 / threads=12 / sliced_threads=0 / nr=0 / decimate=1 / interlaced=0 / constrained_intra=0 / bframes=10 / b_pyramid=2 / b_adapt=2 / b_bias=0 / direct=3 / weightb=1 / open_gop=0 / weightp=2 / keyint=250 / keyint_min=25 / scenecut=40 / intra_refresh=0 / rc_lookahead=60 / rc=2pass / mbtree=1 / bitrate=1589 / ratetol=1.0 / qcomp=0.65 / qpmin=0 / qpmax=69 / qpstep=4 / cplxblur=20.0 / qblur=0.5 / ip_ratio=1.40 / aq=2:1.00
Language: English

Audio #1
ID: 2
Format: AC-3
Format/Info: Audio Coding 3
Mode extension: CM (complete main)
Codec ID: A_AC3
Duration: 1h 23mn
Bit rate mode: Constant
Bit rate: 448 Kbps
Channel(s): 6 channels
Channel positions: Front: L C R, Side: L R, LFE
Sampling rate: 48.0 KHz
Bit depth: 16 bits
Compression mode: Lossy
Stream size: 268 MiB (18%)
Title: DUB
Language: Russian

Audio #2
ID: 3
Format: AC-3
Format/Info: Audio Coding 3
Mode extension: CM (complete main)
Codec ID: A_AC3
Duration: 1h 23mn
Bit rate mode: Constant
Bit rate: 448 Kbps
Channel(s): 6 channels
Channel positions: Front: L C R, Side: L R, LFE
Sampling rate: 48.0 KHz
Bit depth: 16 bits
Compression mode: Lossy
Stream size: 268 MiB (18%)
Title: DUB
Language: Ukrain







Поделиться:




реклама партнёра


Вернуться к началу
 Профиль Отправить личное сообщение  
 
   Похожие торренты   Автор   Торрент   Размер 
В этой теме нет новых непрочитанных сообщений. Доминион / Dominion [02x01-13 из 13] (Скотт Чарльз Стюарт) [ужасы, фантастика, фэнтези, боевик, драма, 2015] WEB-DL 720p, Mvo [LostFilm]

Dracon

195 | 378

16.21 ГБ

В этой теме нет новых непрочитанных сообщений. Доминион / Dominion [01х01-06 из 13] (Скотт Чарльз Стюарт) [2014, ужасы, фантастика, фэнтези, боевик, драма, WEB-DLRip | LostFilm]

Nickolas3435

83 | 35

2.53 ГБ

В этой теме нет новых непрочитанных сообщений. Доминион / Dominion [02х01-09 из 13] (Скотт Чарльз Стюарт) [ужасы, фантастика, фэнтези, боевик, драма, 2015] WEB-DL 1080p, Mvo [LostFilm]

Dracon

0 | 7

15.9 ГБ

В этой теме нет новых непрочитанных сообщений. Доминион / Dominion [01х01-08 из 08] (Скотт Чарльз Стюарт) [2014, ужасы, фантастика, фэнтези, боевик, драма, HDTVRip | Kerob]

Nickolas3435

146 | 119

3.72 ГБ

В этой теме нет новых непрочитанных сообщений. Доминион / Dominion [01х01] (Скотт Чарльз Стюарт) [2014, ужасы, фантастика, фэнтези, боевик, драма, WEB-DLRip | LostFilm]

Nickolas3435

811 | 12

723.69 МБ

В этой теме нет новых непрочитанных сообщений. Доминион / Dominion [02х01-13 из 13] (Скотт Чарльз Стюарт) [ужасы, фантастика, фэнтези, боевик, драма, 2015] WEB-DL 1080p, Mvo [NewStudio]

Dracon

9 | 6

22.31 ГБ

В этой теме нет новых непрочитанных сообщений. Доминион / Dominion [01х01-03 из 13] (Скотт Чарльз Стюарт) [2014, ужасы, фантастика, фэнтези, боевик, драма, WEB-DL 1080p | BaibaKo]

Nickolas3435

84 | 41

5.87 ГБ


Начать новую тему Ответить на тему  [ 1 сообщение ] 




Для Мосгорсуда, Роскомнадзора и рекламодателей:: mosgorsud-torrent[собачка]yandex.ru