Торрент файл
скачать торрент магнет ссылка Добавлен: 22 янв 2012, 15:03
Размер: 1.46 ГБ
Сидеров: 136
Личеров: 10
Автор

СообщениеДобавлено: 22 янв 2012, 15:03 

Не в сети
Супермодератор
Аватара пользователя
Дата регистрации:
11 апр 2010, 18:10
Спасибо: 5801 / 7
Сообщения: 56779
Трон: Наследие / Tron: Legacy


Перевод: Профессиональный (полное дублирование)
Субтитры:отсутствуют
Формат: HDRip-AVC, MKV, H.264, AC3

Страна: США
Режиссер: Джозеф Косински
Жанр: фантастика, боевик, триллер, приключения

Продолжительность: 02:05:08
Год выпуска: 2010

В ролях: Джефф Бриджес, Гаррет Хедлунд, Оливия Уайлд, Брюс Бокслейтнер, Джеймс Фрейн, Бо Гарретт, Майкл Шин, Серинда Свон, Йайа ДаКоста, Элизабет Мэтис

Описание: Сэм Флинн, технически одарённый 27-летний сын Кевина Флинна, начинает расследовать исчезновение своего отца и оказывается втянутым в тот же мир жестоких программ и гладиаторских игр, в котором его отец жил на протяжении 25 лет. Вместе с помощницей Кевина, отец и сын пускаются в рискованное путешествие за жизнью по поражающей взгляд кибер-вселенной, которая стала ещё более совершенной и чрезвычайно опасной







Видео: 720x408 (16:9), 23.976 fps, AVC(x264) High@L4.1~1477 kbps avg, 0.21 bit/pixel
Аудио: 48 kHz, AC3, 2 ch, ~192 kbps avg

Рип от:TswetkOFF
Релиз-Группа:




General
Unique ID: 193467131616827028767356684916271999597 (0x918C6A093E843588A09BEC539C3DEA6D)
Complete name: D:\Films\tron_[tfile.ru].mkv
Format: Matroska
File size: 1.46 GiB
Duration: 2h 5mn
Overall bit rate: 1 671 Kbps
Encoded date: UTC 2011-07-08 00:13:33
Writing application: mkvmerge v4.6.0 ('Still Crazy After All These Years') сборка от Apr1 2011 21:01:49
Writing library: libebml v1.2.0 + libmatroska v1.1.0

Video
ID: 1
Format: AVC
Format/Info: Advanced Video Codec
Format profile: High@L4.1
Format settings, CABAC: Yes
Format settings, ReFrames: 4 frames
Codec ID: V_MPEG4/ISO/AVC
Duration: 2h 5mn
Bit rate: 1 477 Kbps
Width: 720 pixels
Height: 408 pixels
Display aspect ratio: 16:9
Frame rate: 23.976 fps
Color space: YUV
Chroma subsampling: 4:2:0
Bit depth: 8 bits
Scan type: Progressive
Bits/(Pixel*Frame): 0.210
Stream size: 1.26 GiB (87%)
Writing library: x264 core 115 r1937 aa21558
Encoding settings: cabac=1 / ref=2 / deblock=1:0:0 / analyse=0x3:0x113 / me=hex / subme=6 / psy=1 / psy_rd=1.00:0.00 / mixed_ref=1 / me_range=16 / chroma_me=1 / trellis=1 / 8x8dct=1 / cqm=0 / deadzone=21,11 / fast_pskip=1 / chroma_qp_offset=-2 / threads=3 / sliced_threads=0 / nr=0 / decimate=1 / interlaced=0 / bluray_compat=0 / constrained_intra=0 / bframes=3 / b_pyramid=2 / b_adapt=1 / b_bias=0 / direct=1 / weightb=1 / open_gop=0 / weightp=1 / keyint=250 / keyint_min=23 / scenecut=40 / intra_refresh=0 / rc_lookahead=30 / rc=2pass / mbtree=1 / bitrate=1477 / ratetol=1.0 / qcomp=0.60 / qpmin=0 / qpmax=69 / qpstep=4 / cplxblur=20.0 / qblur=0.5 / ip_ratio=1.40 / aq=1:1.00

Audio
ID: 2
Format: AC-3
Format/Info: Audio Coding 3
Mode extension: CM (complete main)
Codec ID: A_AC3
Duration: 2h 5mn
Bit rate mode: Constant
Bit rate: 192 Kbps
Channel(s): 2 channels
Channel positions: Front: L R
Sampling rate: 48.0 KHz
Bit depth: 16 bits
Compression mode: Lossy
Stream size: 172 MiB (11%)











Поделиться:




реклама партнёра


Вернуться к началу
 Профиль Отправить личное сообщение  
 
   Похожие торренты   Автор   Торрент   Размер 
В этой теме нет новых непрочитанных сообщений. Наследие викингов / Viking Legacy [боевик, приключения, 2016] HDRip, Mvo

salma3

433 | 399

1.37 ГБ

В этой теме нет новых непрочитанных сообщений. Наследие викингов / Viking Legacy [боевик, приключения, 2016] BDRip 720p, Mvo

salma3

1703 | 315

3.42 ГБ

В этой теме нет новых непрочитанных сообщений. Снайпер: Наследие /  Sniper: Legacy [боевик, 2014] WEB-DLRip, Mvo [лицензия]

salma3

6 | 40

1.37 ГБ

В этой теме нет новых непрочитанных сообщений. Снайпер: Наследие / Sniper: Legacy [Боевик, 2014] WEB-DL 1080p, Mvo [iTunes]

salma3

1558 | 68

3.97 ГБ

В этой теме нет новых непрочитанных сообщений. Снайпер: Наследие / Sniper: Legacy [боевик, 2014] WEB-DL 720p, Mvo [iTunes]

Dracon

783 | 20

3.11 ГБ

В этой теме нет новых непрочитанных сообщений. Наследие демона / See How They Run / Demon Legacy [ужасы, 2014] WEB-DLRip, Dvo

salma3

382 | 15

1.44 ГБ

В этой теме нет новых непрочитанных сообщений. Царь скорпионов 4: Утерянный трон / The Scorpion King: The Lost Throne (Майк Эллиот) [Приключения, боевик, 2015] HDRip [BaibaKo]

Dracon

61 | 5

2.05 ГБ


Начать новую тему Ответить на тему  [ 1 сообщение ] 




Для Мосгорсуда, Роскомнадзора и рекламодателей:: mosgorsud-torrent[собачка]yandex.ru