Торрент файл
скачать торрент магнет ссылка Добавлен: 22 янв 2012, 15:03
Размер: 2.28 ГБ
Сидеров: 137
Личеров: 10
Автор

СообщениеДобавлено: 22 янв 2012, 15:03 

Не в сети
Супермодератор
Аватара пользователя
Дата регистрации:
11 апр 2010, 18:10
Спасибо: 5798 / 7
Сообщения: 56779
Люди Икс: Первый класс / X-Men: First Class

Перевод: Профессиональный (полное дублирование), cубтитры:русские
Формат: DVDRip-AVC, MKV, H.264, AC3
Страна: США
Режиссер: Мэттью Вон
Жанр: фантастика, боевик, триллер, драма, приключения
Продолжительность: 02:06:19
Год выпуска: 2011

В ролях: Джеймс МакЭвой, Майкл Фассбендер, Кевин Бейкон, Калеб Лэндри Джонс, Николас Холт, Лукас Тилл, Дженнифер Лоуренс, Джейсон Флеминг, Зои Кравиц, Дженьюэри Джонс

Описание: Фильм нам расскажет о том, как сформировались профессор Ксавье и Магнито, о процессе основания школы Ксавье для детей-мутантов и, наконец, о том, что же произошло между двумя закадычными друзьями и почему они расстались.

[/field]

Релиз группа:

Видео: 1024x432 (2.35:1), 25.000 fps, AVC, х264, High@L4.1, ~ 2143Kbps, 0.276 bit/pixel
Аудио: 48 kHz, AC3 Dolby Digital, 3/2 (L,C,R,l,r) + LFE ch, ~384.00 kbps avg

General
Unique ID: 241772546159048509736071841532448934828 (0xB5E3B2D9EE0AE79888FBCAA1E95D0BAC)
Complete name: E:\Загрузки\Lyudi.Iks.Pervyi.Klass.x264.2011.DVDRip-AVC.DHT-Movies.mkv
Format: Matroska
File size: 2.28 GiB
Duration: 2h 6mn
Overall bit rate: 2 578 Kbps
Encoded date: UTC 2011-07-08 16:00:34
Writing application: mkvmerge v4.8.0 ('I Got The...') зібрано May 24 2011 03:12:58
Writing library: libebml v1.2.0 + libmatroska v1.1.0

Video
ID: 1
Format: AVC
Format/Info: Advanced Video Codec
Format profile: High@L4.1
Format settings, CABAC: Yes
Format settings, ReFrames: 5 frames
Codec ID: V_MPEG4/ISO/AVC
Duration: 2h 6mn
Bit rate: 2 143 Kbps
Width: 720 pixels
Height: 432 pixels
Display aspect ratio: 2.35:1
Original display aspect ratio: 1.667
Frame rate: 25.000 fps
Standard: NTSC
Color space: YUV
Chroma subsampling: 4:2:0
Bit depth: 8 bits
Scan type: Progressive
Bits/(Pixel*Frame): 0.276
Stream size: 1.89 GiB (83%)
Language: English
Color primaries: BT.601-6 525, BT.1358 525, BT.1700 NTSC, SMPTE 170M
Transfer characteristics: BT.601-6 525, BT.601-6 625, BT.1358 525, BT.1358 625, BT.1700 NTSC, SMPTE 170M
Matrix coefficients: BT.601-6 525, BT.1358 525, BT.1700 NTSC, SMPTE 170M

Audio
ID: 2
Format: AC-3
Format/Info: Audio Coding 3
Mode extension: CM (complete main)
Codec ID: A_AC3
Duration: 2h 6mn
Bit rate mode: Constant
Bit rate: 384 Kbps
Channel(s): 6 channels
Channel positions: Front: L C R, Side: L R, LFE
Sampling rate: 48.0 KHz
Bit depth: 16 bits
Compression mode: Lossy
Stream size: 347 MiB (15%)
Language: Russian

Text #1
ID: 3
Format: UTF-8
Codec ID: S_TEXT/UTF8
Codec ID/Info: UTF-8 Plain Text
Title: Forced
Language: Russian

Text #2
ID: 4
Format: UTF-8
Codec ID: S_TEXT/UTF8
Codec ID/Info: UTF-8 Plain Text
Title: Полные
Language: Russian











Поделиться:




реклама партнёра


Вернуться к началу
 Профиль Отправить личное сообщение  
 
   Похожие торренты   Автор   Торрент   Размер 
В этой теме нет новых непрочитанных сообщений. Класс / Class [01x01-03 из 08] (фантастика, приключения, 2016) WEB-DLRip | Jaskier

marya111

0 | 0

1.72 ГБ

В этой теме нет новых непрочитанных сообщений. Класс 1984 / Class of 1984 [боевик, триллер, драма, криминал, 1982] BDRip 1080p, Avo

salma3

101 | 32

7.76 ГБ

В этой теме нет новых непрочитанных сообщений. Класс 1984 / Class of 1984 [боевик, триллер, драма, криминал, 1982] BDRip 720p, Avo

salma3

13 | 16

4.67 ГБ

В этой теме нет новых непрочитанных сообщений. Класс 1984 / Class of 1984 [боевик, триллер, драма, криминал, 1982] BDRemux 1080p, Avo+Sub

salma3

10 | 2

28.28 ГБ

В этой теме нет новых непрочитанных сообщений. Класс 1984 / Class of 1984 [триллер, драма, криминал, 1982] DVDRip, Avo

salma3

78 | 8

1.37 ГБ

В этой теме нет новых непрочитанных сообщений. Сокращая класс / Cutting Class [ужасы, триллер, комедия, 1988] DVDRip, Avo [Гаврилов]

salma3

52 | 5

1.45 ГБ

В этой теме нет новых непрочитанных сообщений. Класс / Class [драма, мелодрама, комедия, 1983] HDRip, Dvo

salma3

34 | 4

1.46 ГБ


Начать новую тему Ответить на тему  [ 1 сообщение ] 




Для Мосгорсуда, Роскомнадзора и рекламодателей:: mosgorsud-torrent[собачка]yandex.ru