Торрент файл
скачать торрент магнет ссылка Добавлен: 22 янв 2012, 15:02
Размер: 2.91 ГБ
Сидеров: 112
Личеров: 9
Автор

СообщениеДобавлено: 22 янв 2012, 15:02 

Не в сети
Супермодератор
Аватара пользователя
Дата регистрации:
11 апр 2010, 18:10
Спасибо: 5962 / 7
Сообщения: 56762
Ведьмы страны Оз / The Witches of Oz


Перевод: Профессиональный (многоголосый, закадровый), cубтитры: отсутствуют
Формат: DVDRip-AVC, MKV, H.264, AC3
Страна: США
Режиссер: Ли Скотт
Жанр: фэнтези, комедия
Продолжительность: 01:25:19 + 01:21:02
Год выпуска: 2011

В ролях: Шон Эстин, Билли Бойд, Джеффри Комбс, Росс Дегроу, Монти Доминге, Лиз Дуглас, Росс Эдгар

Описание: Дороти Гейл — простая девушка, живущая со своим дядей Генри в Канзасе. В свободное время она пишет книги для детей о выдуманной ее дедом стране Оз. Жизнь Дороти резко меняется, когда ее приглашают в Нью-Йорк для презентации своих книг. Для нее здесь все незнакомо и странно. Неожиданно Дороти понимает, что рассказы деда о чудесах страны Оз и ее персонажах очень и очень… реальны.



Видео#1: 720 x 400 (1.80:1), 25.000 fps, AVC, х264, High@L4.1, ~ 2181 Kbps, 0.303 bit/pixel
Видео#2: 720 x 400 (1.80:1), 25.000 fps, AVC, х264, High@L4.1, ~ 2311 Kbps, 0.321 bit/pixel
Аудио: 48 kHz, AC3 Dolby Digital, 3/2 (L,C,R,l,r) + LFE ch, ~256 kbps


Рип: jeenart

General
Unique ID: 186849066260376098466755337616632897009 (0x8C91D238CC3B283AB491A763FA2CDDF1)
Complete name: F:\Мои релизы\Все релизы 10\vedmi_iz_strani_oz_[tfile.ru]\1_vedmi_iz_strani_oz_[tfile.ru].mkv
Format: Matroska
File size: 1.45 GiB
Duration: 1h 25mn
Overall bit rate: 2 439 Kbps
Encoded date: UTC 2011-07-10 05:22:47
Writing application: mkvmerge v4.6.0 ('Still Crazy After All These Years') сборка от Apr1 2011 21:01:49
Writing library: libebml v1.2.0 + libmatroska v1.1.0

Video
ID: 1
Format: AVC
Format/Info: Advanced Video Codec
Format profile: High@L4.1
Format settings, CABAC: Yes
Format settings, ReFrames: 3 frames
Codec ID: V_MPEG4/ISO/AVC
Duration: 1h 25mn
Bit rate: 2 181 Kbps
Width: 720 pixels
Height: 400 pixels
Display aspect ratio: 16:9
Frame rate: 25.000 fps
Color space: YUV
Chroma subsampling: 4:2:0
Bit depth: 8 bits
Scan type: Progressive
Bits/(Pixel*Frame): 0.303
Stream size: 1.27 GiB (88%)
Writing library: x264 core 115 r1937 aa21558
Encoding settings: cabac=1 / ref=3 / deblock=1:-1:-1 / analyse=0x3:0x113 / me=dia / subme=7 / psy=1 / psy_rd=1.00:0.10 / mixed_ref=1 / me_range=16 / chroma_me=1 / trellis=1 / 8x8dct=1 / cqm=0 / deadzone=21,11 / fast_pskip=1 / chroma_qp_offset=-3 / threads=6 / sliced_threads=0 / nr=0 / decimate=1 / interlaced=0 / bluray_compat=0 / constrained_intra=0 / bframes=1 / b_pyramid=0 / b_adapt=0 / b_bias=0 / direct=0 / weightb=1 / open_gop=0 / weightp=0 / keyint=250 / keyint_min=25 / scenecut=40 / intra_refresh=0 / rc_lookahead=40 / rc=2pass / mbtree=1 / bitrate=2181 / ratetol=1.0 / qcomp=0.60 / qpmin=0 / qpmax=69 / qpstep=4 / cplxblur=20.0 / qblur=0.5 / ip_ratio=1.40 / aq=1:1.00

Audio
ID: 2
Format: AC-3
Format/Info: Audio Coding 3
Mode extension: CM (complete main)
Codec ID: A_AC3
Duration: 1h 25mn
Bit rate mode: Constant
Bit rate: 256 Kbps
Channel(s): 6 channels
Channel positions: Front: L C R, Side: L R, LFE
Sampling rate: 48.0 KHz
Bit depth: 16 bits
Compression mode: Lossy
Stream size: 156 MiB (10%)

2 серия

General
Unique ID: 244268216271479674201931856895527491963 (0xB7C458E34635FFAD862A6D632D2E197B)
Complete name: F:\Мои релизы\Все релизы 10\vedmi_iz_strani_oz_[tfile.ru]\2_vedmi_iz_strani_oz_[tfile.ru].mkv
Format: Matroska
File size: 1.45 GiB
Duration: 1h 21mn
Overall bit rate: 2 569 Kbps
Encoded date: UTC 2011-07-10 07:56:03
Writing application: mkvmerge v4.6.0 ('Still Crazy After All These Years') сборка от Apr1 2011 21:01:49
Writing library: libebml v1.2.0 + libmatroska v1.1.0

Video
ID: 1
Format: AVC
Format/Info: Advanced Video Codec
Format profile: High@L4.1
Format settings, CABAC: Yes
Format settings, ReFrames: 3 frames
Codec ID: V_MPEG4/ISO/AVC
Duration: 1h 21mn
Bit rate: 2 311 Kbps
Width: 720 pixels
Height: 400 pixels
Display aspect ratio: 16:9
Frame rate: 25.000 fps
Color space: YUV
Chroma subsampling: 4:2:0
Bit depth: 8 bits
Scan type: Progressive
Bits/(Pixel*Frame): 0.321
Stream size: 1.28 GiB (88%)
Writing library: x264 core 115 r1937 aa21558
Encoding settings: cabac=1 / ref=3 / deblock=1:-1:-1 / analyse=0x3:0x113 / me=dia / subme=7 / psy=1 / psy_rd=1.00:0.10 / mixed_ref=1 / me_range=16 / chroma_me=1 / trellis=1 / 8x8dct=1 / cqm=0 / deadzone=21,11 / fast_pskip=1 / chroma_qp_offset=-3 / threads=6 / sliced_threads=0 / nr=0 / decimate=1 / interlaced=0 / bluray_compat=0 / constrained_intra=0 / bframes=1 / b_pyramid=0 / b_adapt=0 / b_bias=0 / direct=0 / weightb=1 / open_gop=0 / weightp=0 / keyint=250 / keyint_min=25 / scenecut=40 / intra_refresh=0 / rc_lookahead=40 / rc=2pass / mbtree=1 / bitrate=2311 / ratetol=1.0 / qcomp=0.60 / qpmin=0 / qpmax=69 / qpstep=4 / cplxblur=20.0 / qblur=0.5 / ip_ratio=1.40 / aq=1:1.00

Audio
ID: 2
Format: AC-3
Format/Info: Audio Coding 3
Mode extension: CM (complete main)
Codec ID: A_AC3
Duration: 1h 21mn
Bit rate mode: Constant
Bit rate: 256 Kbps
Channel(s): 6 channels
Channel positions: Front: L C R, Side: L R, LFE
Sampling rate: 48.0 KHz
Bit depth: 16 bits
Compression mode: Lossy
Stream size: 148 MiB (10%)





















Поделиться:




реклама партнёра


Вернуться к началу
 Профиль Отправить личное сообщение  
 
   Похожие торренты   Автор   Торрент   Размер 
В этой теме нет новых непрочитанных сообщений. Ведьмы Ист-Энда / Witches of East End [S01-02] [Комедия, драма, фэнтези, 2013-2014] WEB-DLRip, Mvo [LostFilm]

salma3

20 | 9

9.09 ГБ

В этой теме нет новых непрочитанных сообщений. Ведьмы / The Witches [фэнтези, семейный, 1990] WEBRip 1080p, Dub

salma3

58 | 14

8.71 ГБ

В этой теме нет новых непрочитанных сообщений. Волшебники / The Magicians (Сезон 1, Серии 1-13 из 13) (Скотт Смит, Джен Элиасберг) [2016, Ужасы, фэнтези, драма, детектив , WEB-DLRip 1080p] [DD5.1] [MVO] [LostFilm ]

Враг Нароода

0 | 0

25.7 ГБ

В этой теме нет новых непрочитанных сообщений. Голоса большой страны [мюзикл, комедия, мелодрама, 2016] WEB-DL 720p [iTunes]

Dracon

463 | 14

3.09 ГБ

В этой теме нет новых непрочитанных сообщений. Голоса большой страны [мюзикл, комедия, мелодрама, 2016] WEB-DL 1080p [iTunes]

Dracon

93 | 10

3.41 ГБ

В этой теме нет новых непрочитанных сообщений. Голоса большой страны [мюзикл, комедия, мелодрама, 2016] WEB-DLRip [iTunes]

Dracon

1120 | 38

1.46 ГБ

В этой теме нет новых непрочитанных сообщений. 7 ведьм / 7 Witches [ужасы, триллер, 2017] WEB-DLRip, Mvo

salma3

1155 | 544

1.37 ГБ


Начать новую тему Ответить на тему  [ 1 сообщение ] 




Для Мосгорсуда, Роскомнадзора и рекламодателей:: mosgorsud-torrent[собачка]yandex.ru