Торрент файл
скачать торрент магнет ссылка Добавлен: 22 янв 2012, 15:01
Размер: 1.9 ГБ
Сидеров: 9
Личеров: 5
Автор

СообщениеДобавлено: 22 янв 2012, 15:01 

Не в сети
Супермодератор
Аватара пользователя
Дата регистрации:
11 апр 2010, 18:10
Спасибо: 5801 / 7
Сообщения: 56779
Запрещенный прием / Sucker Punch

Перевод: Профессиональный (полное дублирование) [Лицензия]
Субтитры: русские, английские (отключаемые)
Формат: HDRip-AVC, MKV, H.264, AC3

Страна: США, Канада
Режиссер: Зак Снайдер
Жанр: фэнтези, боевик, триллер, приключения

Продолжительность: 01:49:45
Год выпуска: 2011
В ролях: Эмили Браунинг, Эбби Корниш, Джена Мэлоун, Ванесса Энн Хадженс, Джеми Чунг, Карла Гуджино, Оскар Айзек, Джон Хэмм, Скотт Гленн, Ричард Цетрон

Описание: Действие развернется в 1950 году. Молодую девушку по настоянию ее злодейского отчима определяют в больницу для душевнобольных, где спустя пять дней главную героиню лоботомируют. Чтобы оградиться от боли, она выдумывает сказочный мир, где и начинает планировать свой побег — для этого ей нужно раздобыть пять предметов.



Видео: 1280x528 (2.424), 23.976 fps, AVC (H264), High@L4.1,~1850 kbps, 0.117 bit/pixel
Аудио #1: Русский: 48 kHz, AC3 Dolby Digital, 6 channels, ~448.00 kbps [Профессиональный (полное дублирование)]
Аудио #2: Английский: 48 kHz, AC3 Dolby Digital, 2 channels, ~128.00 kbps [Оригинал]



Формат: Matroska
Размер файла: 1,90 Гбайт
Продолжительность: 1 ч. 49 м.
Общий поток: 2479 Кбит/сек
Название фильма: Запрещенный прием / Sucker Punch (2011) BDRip-AVC от FireBit
Дата кодирования: UTC 2011-07-13 08:39:42
Программа кодирования: mkvmerge v2.3.0 ('Freak U') built on Sep8 2008 18:32:16
Библиотека кодирования: libebml v0.7.7 + libmatroska v0.8.1

Видео
Идентификатор: 1
Формат: AVC
Формат/Информация: Advanced Video Codec
Профиль формата: High@L5.1
Параметр CABAC формата: Да
Параметр ReFrames формата: 5 кадров
Идентификатор кодека: V_MPEG4/ISO/AVC
Продолжительность: 1 ч. 49 м.
Битрейт: 1900 Кбит/сек
Ширина: 1280 пикс.
Высота: 528 пикс.
Соотношение сторон: 2,40:1
Частота кадров: 23,976 кадр/сек
Цветовое пространство: YUV
Подвыборка цветности: 4:2:0
Битовая глубина: 8 бит
Тип развёртки: Прогрессивная
Бит/(Пиксели*Кадры): 0.117
Размер потока: 1,42 Гбайт (75%)
Библиотека кодирования: x264 core 80 r1376M 3feaec2
Настройки программы: cabac=1 / ref=5 / deblock=1:0:0 / analyse=0x3:0x113 / me=umh / subme=8 / psy=1 / psy_rd=1.0:0.0 / mixed_ref=1 / me_range=16 / chroma_me=1 / trellis=1 / 8x8dct=1 / cqm=0 / deadzone=21,11 / fast_pskip=1 / chroma_qp_offset=0 / threads=12 / sliced_threads=0 / nr=0 / decimate=1 / mbaff=0 / constrained_intra=0 / bframes=3 / b_pyramid=0 / b_adapt=2 / b_bias=0 / direct=3 / wpredb=1 / wpredp=2 / keyint=250 / keyint_min=25 / scenecut=40 / rc_lookahead=50 / rc=2pass / mbtree=1 / bitrate=1900 / ratetol=1.0 / qcomp=0.60 / qpmin=10 / qpmax=51 / qpstep=4 / cplxblur=20.0 / qblur=0.5 / ip_ratio=1.40 / aq=1:1.00
Язык: English

Аудио #1
Идентификатор: 2
Формат: AC-3
Формат/Информация: Audio Coding 3
Расширение режима: CM (complete main)
Идентификатор кодека: A_AC3
Продолжительность: 1 ч. 49 м.
Вид битрейта: Постоянный
Битрейт: 448 Кбит/сек
Каналы: 6 каналов
Расположение каналов: Front: L C R, Side: L R, LFE
Частота: 48,0 КГц
Битовая глубина: 16 бит
Метод сжатия: С потерями
Размер потока: 352 Мбайт (18%)
Язык: Russian

Аудио #2
Идентификатор: 3
Формат: AC-3
Формат/Информация: Audio Coding 3
Расширение режима: CM (complete main)
Идентификатор кодека: A_AC3
Продолжительность: 1 ч. 49 м.
Вид битрейта: Постоянный
Битрейт: 128 Кбит/сек
Каналы: 2 канала
Расположение каналов: Front: L R
Частота: 48,0 КГц
Битовая глубина: 16 бит
Метод сжатия: С потерями
Размер потока: 100 Мбайт (5%)
Язык: English

Текст #1
Идентификатор: 4
Формат: UTF-8
Идентификатор кодека: S_TEXT/UTF8
Идентификатор кодека/Информация: UTF-8 Plain Text
Язык: English

Текст #2
Идентификатор: 5
Формат: UTF-8
Идентификатор кодека: S_TEXT/UTF8
Идентификатор кодека/Информация: UTF-8 Plain Text
Язык: Russian

Текст #3
Идентификатор: 6
Формат: UTF-8
Идентификатор кодека: S_TEXT/UTF8
Идентификатор кодека/Информация: UTF-8 Plain Text
Язык: English

Текст #4
Идентификатор: 7
Формат: UTF-8
Идентификатор кодека: S_TEXT/UTF8
Идентификатор кодека/Информация: UTF-8 Plain Text
Язык: English








Поделиться:




реклама партнёра


Вернуться к началу
 Профиль Отправить личное сообщение  
 
   Похожие торренты   Автор   Торрент   Размер 
В этой теме нет новых непрочитанных сообщений. Добро пожаловать в капкан / Welcome to the Punch [Боевик, триллер, криминал, приключения, 2013] HDRip, dub [Чистый звук]

Dracon

979 | 13

1.36 ГБ

В этой теме нет новых непрочитанных сообщений. Sucker - Sucker [2013, Hard Rock,Female Vocal, MP3]

PriZraK

0 | 1

115.16 МБ

В этой теме нет новых непрочитанных сообщений. Утренняя звезда / Morning Star [фэнтези, боевик, триллер, приключения, ужасы, 2014] HDRip, dvo

Dracon

6 | 4

1.37 ГБ

В этой теме нет новых непрочитанных сообщений. Утренняя звезда / Morning Star [фэнтези, боевик, триллер, приключения, ужасы, 2014] HDRip, Avo

salma3

1996 | 92

1.37 ГБ

В этой теме нет новых непрочитанных сообщений. Любовь, сбивающая с ног / Punch-Drunk Love [триллер, драма, мелодрама, комедия, 2002] HDRip, Dvo

salma3

0 | 0

1.45 ГБ

В этой теме нет новых непрочитанных сообщений. Орден Дракона / Dragon Crusaders [Фэнтези, боевик, приключения, 2011] HDRip, Mvo [лицензия]

salma3

3 | 1

1.37 ГБ

В этой теме нет новых непрочитанных сообщений. Добро пожаловать в капкан / Welcome to the Punch [Боевик, триллер, криминал, 2013] BDRip 720p, Dub [THT]

Dracon

1 | 2

4.87 ГБ


Начать новую тему Ответить на тему  [ 1 сообщение ] 




Для Мосгорсуда, Роскомнадзора и рекламодателей:: mosgorsud-torrent[собачка]yandex.ru