Торрент файл
скачать торрент магнет ссылка Добавлен: 22 янв 2012, 15:01
Размер: 741.49 МБ
Сидеров: 96
Личеров: 6
Автор

СообщениеДобавлено: 22 янв 2012, 15:01 

Не в сети
Супермодератор
Аватара пользователя
Дата регистрации:
11 апр 2010, 18:10
Спасибо: 5801 / 7
Сообщения: 56779
Пастырь / Priest

Перевод: Профессиональный (полное дублирование), cубтитры: отсутствуют
Формат: DVDRip, AVI, XviD, MP3
Страна: США
Режиссер: Скотт Чарльз Стюарт
Жанр: ужасы, фантастика, боевик, триллер
Продолжительность: 01:23:46
Год выпуска: 2011

В ролях: Пол Беттани, Карл Урбан, Кэм Жиганде, Мэгги Кью, Лили Коллинз, Брэд Дуриф, Стивен Мойер, Кристофер Пламмер, Алан Дэйл, Медкен Эмик
Описание: Далекое будущее. Миром правят религия и церковь. Священник, нарушая все церковные запреты, пытается выследить банду вампиров, похитивших его племянницу. В поисках ему помогают шериф и монахиня.

[/field]

Видео: 688x288 (2.39:1), 25 fps, XviD build 50 ~1099 kbps avg, 0.22 bit/pixel
Аудио: 48 kHz, MPEG Layer 3, 2 ch, ~128.00 kbps avg

General
Complete name: E:\Загрузки\Pastyr'.2011.DVDRip.avi
Format: AVI
Format/Info: Audio Video Interleave
File size: 741 MiB
Duration: 1h 23mn
Overall bit rate: 1 238 Kbps
Writing application: VirtualDubMod 1.5.10.2 (build 2540/release)
Writing library: VirtualDubMod build 2540/release

Video
ID: 0
Format: MPEG-4 Visual
Format profile: Advanced Simple@L5
Format settings, BVOP: 1
Format settings, QPel: No
Format settings, GMC: No warppoints
Format settings, Matrix: Custom
Codec ID: XVID
Codec ID/Hint: XviD
Duration: 1h 23mn
Bit rate: 1 100 Kbps
Width: 688 pixels
Height: 288 pixels
Display aspect ratio: 2.35:1
Frame rate: 25.000 fps
Color space: YUV
Chroma subsampling: 4:2:0
Bit depth: 8 bits
Scan type: Progressive
Compression mode: Lossy
Bits/(Pixel*Frame): 0.222
Stream size: 659 MiB (89%)
Writing library: XviD 1.2.1 (UTC 2008-12-04)

Audio
ID: 1
Format: MPEG Audio
Format version: Version 1
Format profile: Layer 3
Codec ID: 55
Codec ID/Hint: MP3
Duration: 1h 23mn
Bit rate mode: Constant
Bit rate: 128 Kbps
Channel(s): 2 channels
Sampling rate: 48.0 KHz
Compression mode: Lossy
Stream size: 76.7 MiB (10%)
Alignment: Aligned on interleaves
Interleave, duration: 40 ms (1.00 video frame)
Interleave, preload duration: 504 ms
Writing library: LAME3.97
Encoding settings: -m s -V 4 -q 2 -lowpass 17 -b 128








Поделиться:




реклама партнёра


Вернуться к началу
 Профиль Отправить личное сообщение  
 
   Похожие торренты   Автор   Торрент   Размер 
В этой теме нет новых непрочитанных сообщений. Доминион / Dominion [02x01-13 из 13] (Скотт Чарльз Стюарт) [ужасы, фантастика, фэнтези, боевик, драма, 2015] WEB-DL 720p, Mvo [LostFilm]

Dracon

195 | 378

16.21 ГБ

В этой теме нет новых непрочитанных сообщений. Доминион / Dominion [01х01-08 из 08] (Скотт Чарльз Стюарт) [2014, ужасы, фантастика, фэнтези, боевик, драма, HDTVRip | Kerob]

Nickolas3435

146 | 119

3.72 ГБ

В этой теме нет новых непрочитанных сообщений. Доминион / Dominion [02х01-13 из 13] (Скотт Чарльз Стюарт) [ужасы, фантастика, фэнтези, боевик, драма, 2015] WEB-DL 1080p, Mvo [NewStudio]

Dracon

9 | 6

22.31 ГБ

В этой теме нет новых непрочитанных сообщений. Доминион / Dominion [01х01-03 из 13] (Скотт Чарльз Стюарт) [2014, ужасы, фантастика, фэнтези, боевик, драма, WEB-DL 1080p | BaibaKo]

Nickolas3435

84 | 41

5.87 ГБ

В этой теме нет новых непрочитанных сообщений. Доминион / Dominion [02x01-13 из 13] (Скотт Чарльз Стюарт) [ужасы, фантастика, фэнтези, боевик, драма, 2015] WEB-DL 720p, Mvo [NewStudio]

Dracon

36 | 53

18.18 ГБ

В этой теме нет новых непрочитанных сообщений. Доминион / Dominion [01х01] (Скотт Чарльз Стюарт) [2014, ужасы, фантастика, фэнтези, боевик, драма, WEB-DLRip | LostFilm]

Nickolas3435

811 | 12

723.69 МБ

В этой теме нет новых непрочитанных сообщений. Доминион / Dominion [02х01-09 из 13] (Скотт Чарльз Стюарт) [ужасы, фантастика, фэнтези, боевик, драма, 2015] WEB-DL 1080p, Mvo [LostFilm]

Dracon

0 | 7

15.9 ГБ


Начать новую тему Ответить на тему  [ 1 сообщение ] 




Для Мосгорсуда, Роскомнадзора и рекламодателей:: mosgorsud-torrent[собачка]yandex.ru