Торрент файл
скачать торрент магнет ссылка Добавлен: 22 янв 2012, 14:59
Размер: 705.06 МБ
Сидеров: 75
Личеров: 7
Автор

СообщениеДобавлено: 22 янв 2012, 14:59 

Не в сети
Супермодератор
Аватара пользователя
Дата регистрации:
11 апр 2010, 18:10
Спасибо: 5802 / 7
Сообщения: 56779
Пастырь / Priest

Перевод: Профессиональный (полное дублирование), cубтитры: отсутствуют
Формат: LowHDRip, AVI, XviD, MP3
Страна: США
Режиссер: Скотт Чарльз Стюарт
Жанр: ужасы, фантастика, боевик, триллер
Продолжительность: 01:27:27
Год выпуска: 2011

В ролях: Пол Беттани, Карл Урбан, Кэм Жиганде, Мэгги Кью, Лили Коллинз, Брэд Дуриф, Стивен Мойер, Кристофер Пламмер, Алан Дэйл, Медкен Эмик

Описание: Далекое будущее. Миром правят религия и церковь. Священник, нарушая все церковные запреты, пытается выследить банду вампиров, похитивших его племянницу. В поисках ему помогают шериф и монахиня.

[/field]

Видео: 720x304 (2.37:1), 23.976 fps, XviD build 50 ~989 kbps avg, 0.19 bit/pixel
Аудио: 48 kHz, MPEG Layer 3, 2 ch, ~128.00 kbps avg

General
Complete name: E:\Pastyr.2011.D.HDRip.700MB.avi
Format: AVI
Format/Info: Audio Video Interleave
File size: 705 MiB
Duration: 1h 27mn
Overall bit rate: 1 127 Kbps
Writing application: VirtualDubMod 1.5.10.3| (build 2550/release)
Writing library: VirtualDubMod build 2550/release

Video
ID: 0
Format: MPEG-4 Visual
Format profile: Advanced Simple@L5
Format settings, BVOP: 2
Format settings, QPel: No
Format settings, GMC: No warppoints
Format settings, Matrix: Default (H.263)
Codec ID: XVID
Codec ID/Hint: XviD
Duration: 1h 27mn
Bit rate: 990 Kbps
Width: 720 pixels
Height: 304 pixels
Display aspect ratio: 2.35:1
Frame rate: 23.976 fps
Color space: YUV
Chroma subsampling: 4:2:0
Bit depth: 8 bits
Scan type: Progressive
Compression mode: Lossy
Bits/(Pixel*Frame): 0.189
Stream size: 619 MiB (88%)
Writing library: XviD 1.2.1 (UTC 2008-12-04)

Audio
ID: 1
Format: MPEG Audio
Format version: Version 1
Format profile: Layer 3
Mode: Joint stereo
Mode extension: MS Stereo
Codec ID: 55
Codec ID/Hint: MP3
Duration: 1h 27mn
Bit rate mode: Constant
Bit rate: 128 Kbps
Channel(s): 2 channels
Sampling rate: 48.0 KHz
Compression mode: Lossy
Stream size: 80.0 MiB (11%)
Alignment: Aligned on interleaves
Interleave, duration: 42 ms (1.00 video frame)
Interleave, preload duration: 504 ms
Writing library: LAME3.98r
Encoding settings: -m j -V 4 -q 2 -lowpass 17 -b 128








Поделиться:




реклама партнёра


Вернуться к началу
 Профиль Отправить личное сообщение  
 
   Похожие торренты   Автор   Торрент   Размер 
В этой теме нет новых непрочитанных сообщений. Доминион / Dominion [01х01-03 из 13] (Скотт Чарльз Стюарт) [2014, ужасы, фантастика, фэнтези, боевик, драма, WEB-DL 1080p | BaibaKo]

Nickolas3435

84 | 41

5.87 ГБ

В этой теме нет новых непрочитанных сообщений. Доминион / Dominion [02х01-09 из 13] (Скотт Чарльз Стюарт) [ужасы, фантастика, фэнтези, боевик, драма, 2015] WEB-DL 1080p, Mvo [LostFilm]

Dracon

0 | 7

15.9 ГБ

В этой теме нет новых непрочитанных сообщений. Доминион / Dominion [01х01-06 из 13] (Скотт Чарльз Стюарт) [2014, ужасы, фантастика, фэнтези, боевик, драма, WEB-DLRip | LostFilm]

Nickolas3435

83 | 35

2.53 ГБ

В этой теме нет новых непрочитанных сообщений. Доминион / Dominion [02x01-13 из 13] (Скотт Чарльз Стюарт) [ужасы, фантастика, фэнтези, боевик, драма, 2015] WEB-DL 720p, Mvo [LostFilm]

Dracon

195 | 378

16.21 ГБ

В этой теме нет новых непрочитанных сообщений. Доминион / Dominion [02х01-13 из 13] (Скотт Чарльз Стюарт) [ужасы, фантастика, фэнтези, боевик, драма, 2015] WEB-DL 1080p, Mvo [NewStudio]

Dracon

9 | 6

22.31 ГБ

В этой теме нет новых непрочитанных сообщений. Доминион / Dominion [02x01-13 из 13] (Скотт Чарльз Стюарт) [ужасы, фантастика, фэнтези, боевик, драма, 2015] WEB-DL 720p, Mvo [NewStudio]

Dracon

36 | 53

18.18 ГБ

В этой теме нет новых непрочитанных сообщений. Доминион / Dominion [01х01] (Скотт Чарльз Стюарт) [2014, ужасы, фантастика, фэнтези, боевик, драма, WEB-DLRip | LostFilm]

Nickolas3435

811 | 12

723.69 МБ


Начать новую тему Ответить на тему  [ 1 сообщение ] 




Для Мосгорсуда, Роскомнадзора и рекламодателей:: mosgorsud-torrent[собачка]yandex.ru