Торрент файл
скачать торрент магнет ссылка Добавлен: 22 янв 2012, 14:57
Размер: 2.1 ГБ
Сидеров: 170
Личеров: 9
Автор

СообщениеДобавлено: 22 янв 2012, 14:57 

Не в сети
Супермодератор
Аватара пользователя
Дата регистрации:
11 апр 2010, 18:10
Спасибо: 5801 / 7
Сообщения: 56779
Я – Четвертый / I Am Number Four


Перевод: Профессиональный (полное дублирование), cубтитры: отсутствуют
Формат: HDRip-AVC, MKV, H.264, AC3
Страна: США
Режиссер: Ди Джей Карузо
Жанр: фантастика, боевик, триллер
Продолжительность: 01:49:34
Год выпуска: 2011

В ролях: Алекс Петтифер, Тимоти Олифант, Тереза Палмер, Дианна Агрон, Каллэн МакОлифф, Кевин Дюран, Джэйк Абель, Джефф Хочендонер, Патрик Сибис, Грег Таунли

Описание: Обычный с виду подросток Джон Смит на самом деле - один из последних выживших обитателей далекой планеты. Джон вынужден скрываться от страшных врагов, посланных уничтожить его, ему приходится менять имена, постоянно переезжая с места на место со своим опекуном Генри. В разных городках и в разных школах Джон всегда был новичком без прошлого, но однажды он нашел место, которое смог назвать домом: в маленьком городке в Огайо Джон встретил свою любовь. Теперь ему предстоит открыть в себе уникальные способности, сразиться с древними и страшными врагами своего народа и осознать свое удивительное предназначение.



Видео: 1024 x 552 (1:87:1), 23.976 fps, AVC, х264, High@L4.1, ~ 2361 Kbps, 0.174 bit/pixel
Аудио: 48 kHz, AC3 Dolby Digital, 3/2 (L,C,R,l,r) + LFE ch, ~384 kbps


Рип: jeenart

General
Unique ID: 252736420536112675698471449598061542806 (0xBE234397C8714943B9350FC6F47D7D96)
Complete name: F:\Мои релизы\Все релизы 10\ja_4_[tfile.ru].mkv
Format: Matroska
File size: 2.10 GiB
Duration: 1h 49mn
Overall bit rate: 2 746 Kbps
Encoded date: UTC 2011-07-29 07:46:10
Writing application: mkvmerge v4.6.0 ('Still Crazy After All These Years') сборка от Apr1 2011 21:01:49
Writing library: libebml v1.2.0 + libmatroska v1.1.0

Video
ID: 1
Format: AVC
Format/Info: Advanced Video Codec
Format profile: High@L4.1
Format settings, CABAC: Yes
Format settings, ReFrames: 8 frames
Codec ID: V_MPEG4/ISO/AVC
Duration: 1h 49mn
Bit rate: 2 361 Kbps
Width: 1 024 pixels
Height: 552 pixels
Display aspect ratio: 1.855
Frame rate: 23.976 fps
Color space: YUV
Chroma subsampling: 4:2:0
Bit depth: 8 bits
Scan type: Progressive
Bits/(Pixel*Frame): 0.174
Stream size: 1.77 GiB (84%)
Writing library: x264 core 115 r1937 aa21558
Encoding settings: cabac=1 / ref=8 / deblock=1:-1:-1 / analyse=0x3:0x133 / me=umh / subme=9 / psy=1 / psy_rd=1.00:0.10 / mixed_ref=1 / me_range=16 / chroma_me=1 / trellis=2 / 8x8dct=1 / cqm=0 / deadzone=21,11 / fast_pskip=1 / chroma_qp_offset=-3 / threads=6 / sliced_threads=0 / nr=0 / decimate=1 / interlaced=0 / bluray_compat=0 / constrained_intra=0 / bframes=3 / b_pyramid=2 / b_adapt=2 / b_bias=0 / direct=3 / weightb=1 / open_gop=0 / weightp=2 / keyint=250 / keyint_min=23 / scenecut=40 / intra_refresh=0 / rc_lookahead=60 / rc=2pass / mbtree=1 / bitrate=2361 / ratetol=1.0 / qcomp=0.60 / qpmin=0 / qpmax=69 / qpstep=4 / cplxblur=20.0 / qblur=0.5 / ip_ratio=1.40 / aq=1:1.00

Audio
ID: 2
Format: AC-3
Format/Info: Audio Coding 3
Mode extension: CM (complete main)
Codec ID: A_AC3
Duration: 1h 49mn
Bit rate mode: Constant
Bit rate: 384 Kbps
Channel(s): 6 channels
Channel positions: Front: L C R, Side: L R, LFE
Sampling rate: 48.0 KHz
Bit depth: 16 bits
Compression mode: Lossy
Stream size: 301 MiB (14%)
























Поделиться:




реклама партнёра


Вернуться к началу
 Профиль Отправить личное сообщение  
 
   Похожие торренты   Автор   Торрент   Размер 
В этой теме нет новых непрочитанных сообщений. Самый жестокий год / A Most Violent Year (Джей Си Чендор) [боевик, триллер, драма, криминал, 2014] HDRip, dvo

Dracon

92 | 4

1.35 ГБ

В этой теме нет новых непрочитанных сообщений. Бэтмен против Робина / Batman vs. Robin (Джей Олива) [Мультфильм, боевик, приключения, 2015] HDRip, mvo [Чистый звук]

Dracon

101 | 6

1.37 ГБ

В этой теме нет новых непрочитанных сообщений. Лига Справедливости: Трон Атлантиды / Justice League: Throne of Atlantis (Джей Олива, Этан Сполдинг) [боевик, приключения, 2015] HDRip, mvo

Dracon

43 | 2

1.37 ГБ

В этой теме нет новых непрочитанных сообщений. Самый жестокий год / A Most Violent Year (Джей Си Чендор) [2014, Драма, боевик, триллер, криминал, WEB-DLRip 720p] Sub

Nickolas3435

419 | 21

1.89 ГБ

В этой теме нет новых непрочитанных сообщений. Самый жестокий год / A Most Violent Year (Джей Си Чендор) [боевик, триллер, драма, криминал, 2014] BDRip 720p, dvo+sub

Dracon

74 | 7

5.21 ГБ

В этой теме нет новых непрочитанных сообщений. Самый жестокий год / A Most Violent Year (Джей Си Чендор) [боевик, триллер, драма, криминал, 2014] BDRip 1080p, dvo+avo+sub

Dracon

2 | 2

11.9 ГБ

В этой теме нет новых непрочитанных сообщений. Самый жестокий год / A Most Violent Year (Джей Си Чендор) [боевик, триллер, драма, криминал, 2014] BDRip 720p, dvo

Dracon

90 | 15

2.86 ГБ


Начать новую тему Ответить на тему  [ 1 сообщение ] 




Для Мосгорсуда, Роскомнадзора и рекламодателей:: mosgorsud-torrent[собачка]yandex.ru