Торрент файл
скачать торрент магнет ссылка Добавлен: 22 янв 2012, 14:57
Размер: 1.45 ГБ
Сидеров: 29
Личеров: 9
Автор

СообщениеДобавлено: 22 янв 2012, 14:57 

Не в сети
Супермодератор
Аватара пользователя
Дата регистрации:
11 апр 2010, 18:10
Спасибо: 5802 / 7
Сообщения: 56779
Провал во времени / Retroactive


Перевод: Профессиональный (многоголосый, закадровый), cубтитры: отсутствуют
Формат: HDTVRip-AVC, MKV, H.264, AC3
Страна: США
Режиссер: Луис Морно
Жанр: фантастика, триллер, криминал
Продолжительность: 01:31:11
Год выпуска: 1997

В ролях: Джеймс Белуши, Кайли Трэвис, Шэннон Уирри, Фрэнк Уэйли, Джесси Боррего, М. Эммет Уолш, Шерман Ховард, Гай Бойд, Кристина Коггинс, Робби Тибо мл.

Описание: Под ярким солнцем Великой Американской равнины, на одинокой, продуваемой всеми ветрами автозаправочной станции происходит жестокое преступление. Эти, леденящие душу события происходят на глазах Карен, попутчицы человека, оказавшегося беспощадным убийцей.

Спасаясь от его преследования, Карен вновь и вновь возвращается в прошлое, но всего лишь на 20 минут назад для того, чтобы предотвратить уже совершенное убийство. Один убийца! Один свидетель! Один шанс спастись!




Видео: 960 x 408 (2:35:1), 23.976 fps, AVC, х264, High@L4.1, ~ 2089 Kbps, 0.222 bit/pixel
Аудио: 48 kHz, AC3 Dolby Digital, 2/0 (L,R) ch, ~192 kbps


Рип: jeenart

General
Unique ID: 199972608359447713959123992661240120713 (0x967152CD98F2A9A3AC58EDD9B2350589)
Complete name: F:\Мои релизы\Все релизы 10\retroactive_[tfile.ru].mkv
Format: Matroska
File size: 1.45 GiB
Duration: 1h 31mn
Overall bit rate: 2 282 Kbps
Encoded date: UTC 2011-07-29 14:35:09
Writing application: mkvmerge v4.6.0 ('Still Crazy After All These Years') сборка от Apr1 2011 21:01:49
Writing library: libebml v1.2.0 + libmatroska v1.1.0

Video
ID: 1
Format: AVC
Format/Info: Advanced Video Codec
Format profile: High@L4.1
Format settings, CABAC: Yes
Format settings, ReFrames: 8 frames
Codec ID: V_MPEG4/ISO/AVC
Duration: 1h 31mn
Bit rate: 2 089 Kbps
Width: 960 pixels
Height: 408 pixels
Display aspect ratio: 2.35:1
Frame rate: 23.976 fps
Color space: YUV
Chroma subsampling: 4:2:0
Bit depth: 8 bits
Scan type: Progressive
Bits/(Pixel*Frame): 0.222
Stream size: 1.30 GiB (90%)
Writing library: x264 core 115 r1937 aa21558
Encoding settings: cabac=1 / ref=8 / deblock=1:-1:-1 / analyse=0x3:0x133 / me=umh / subme=9 / psy=1 / psy_rd=1.00:0.10 / mixed_ref=1 / me_range=16 / chroma_me=1 / trellis=2 / 8x8dct=1 / cqm=0 / deadzone=21,11 / fast_pskip=1 / chroma_qp_offset=-3 / threads=6 / sliced_threads=0 / nr=0 / decimate=1 / interlaced=0 / bluray_compat=0 / constrained_intra=0 / bframes=3 / b_pyramid=2 / b_adapt=2 / b_bias=0 / direct=3 / weightb=1 / open_gop=0 / weightp=2 / keyint=250 / keyint_min=23 / scenecut=40 / intra_refresh=0 / rc_lookahead=60 / rc=2pass / mbtree=1 / bitrate=2089 / ratetol=1.0 / qcomp=0.60 / qpmin=0 / qpmax=69 / qpstep=4 / cplxblur=20.0 / qblur=0.5 / ip_ratio=1.40 / aq=1:1.00

Audio
ID: 2
Format: AC-3
Format/Info: Audio Coding 3
Mode extension: CM (complete main)
Codec ID: A_AC3
Duration: 1h 31mn
Bit rate mode: Constant
Bit rate: 192 Kbps
Channel(s): 2 channels
Channel positions: Front: L R
Sampling rate: 48.0 KHz
Bit depth: 16 bits
Compression mode: Lossy
Stream size: 125 MiB (8%)






















Поделиться:




реклама партнёра


Вернуться к началу
 Профиль Отправить личное сообщение  
 
   Похожие торренты   Автор   Торрент   Размер 
В этой теме нет новых непрочитанных сообщений. Провал во времени / Retroactive [фантастика, боевик, триллер, криминал, приключения, 1997] BDRemux 1080p. Mvo

salma3

1 | 2

27.29 ГБ

В этой теме нет новых непрочитанных сообщений. Провал во времени / Retroactive [Фантастика, триллер, 1997] DVDRip. Mvo+Dvo+Avo

salma3

36 | 5

1.93 ГБ

В этой теме нет новых непрочитанных сообщений. Немезида 3: Провал во времени / Nemesis III: Time Lapse [фантастика, боевик, триллер, 1996] HDRip, Avo

salma3

44 | 9

1.37 ГБ

В этой теме нет новых непрочитанных сообщений. Американские горки / Switchback [триллер, криминал, детектив, 1997] HDTVRip, Mvo [СТС]

salma3

5 | 2

1.46 ГБ

В этой теме нет новых непрочитанных сообщений. Агент Картер / Agent Carter (Сезон 1-2, Серия 1-18 из 18) (Луис Д'Эспозито, Питер Лето) [2015-2016 , Фантастика, боевик, приключения, криминал, драма , WEB-DLRip-AVC 1080p] [MVO] [LostFilm , Nevafilm , English] + [Subs Rus,ENG]

Враг Нароода

0 | 0

32.66 ГБ

В этой теме нет новых непрочитанных сообщений. Отряд самоубийц / Suicide Squad [фантастика, боевик, триллер, комедия, криминал, приключения, 2016] HDTVRip-AVC, Avo

salma3

439 | 44

1.42 ГБ

В этой теме нет новых непрочитанных сообщений. Турбулентность / Turbulence [боевик, триллер, 1997] HDTVRip, Mvo+Sub

salma3

11 | 5

1.46 ГБ


Начать новую тему Ответить на тему  [ 1 сообщение ] 




Для Мосгорсуда, Роскомнадзора и рекламодателей:: mosgorsud-torrent[собачка]yandex.ru