Торрент файл
скачать торрент магнет ссылка Добавлен: 22 янв 2012, 14:57
Размер: 745.34 МБ
Сидеров: 74
Личеров: 7
Автор

СообщениеДобавлено: 22 янв 2012, 14:57 

Не в сети
Супермодератор
Аватара пользователя
Дата регистрации:
11 апр 2010, 18:10
Спасибо: 5801 / 7
Сообщения: 56779
Я – Четвертый / I Am Number Four

«Трое уже мертвы... Он – четвертый...»

Перевод: Профессиональный (полное дублирование)
Субтитры:отсутствуют
Формат: LowHDRip-AVC, MKV, H.264, АС3

Страна: США
Режиссер: Ди Джей Карузо
Жанр: фантастика, боевик, триллер

Продолжительность: 01:49:34
Год выпуска: 2011

В ролях: Алекс Петтифер,Тимоти Олифант,Тереза Палмер, Дианна Агрон,Каллэн МакОлиффи,Кевин Дюран,Джэйк Абель,Джефф Хочендонер,Патрик Сибис,Грег Таунлей

Описание: Обычный с виду подросток Джон Смит на самом деле — один из последних выживших обитателей далекой планеты. Джон вынужден скрываться от страшных врагов, посланных уничтожить его, ему приходится менять имена, постоянно переезжая с места на место со своим опекуном Генри. В разных городках и в разных школах Джон всегда был новичком без прошлого, но однажды он нашел место, которое смог назвать домом: в маленьком городке в Огайо Джон встретил свою любовь. Теперь ему предстоит открыть в себе уникальные способности, сразиться с древними и страшными врагами своего народа и осознать свое удивительное предназначение.







Видео: 704x384 (16:9), 23.976 fps, AVC(x264) High@L4.1 ~822 kbps avg, 0.13 bit/pixel
Аудио: 48 kHz, AC3, 2 ch, ~128 kbps avg

Рип от:TswetkOFF
Релиз-Группа:




General
Unique ID: 251811284122194812609398778912941550693 (0xBD7116D8999998CAA24B46A5E4302C65)
Complete name: D:\Films\ja_chetvertiy_[tfile.ru].mkv
Format: Matroska
File size: 745 MiB
Duration: 1h 49mn
Overall bit rate: 951 Kbps
Encoded date: UTC 2011-07-29 18:55:30
Writing application: mkvmerge v4.6.0 ('Still Crazy After All These Years') сборка от Apr1 2011 21:01:49
Writing library: libebml v1.2.0 + libmatroska v1.1.0

Video
ID: 1
Format: AVC
Format/Info: Advanced Video Codec
Format profile: High@L4.1
Format settings, CABAC: Yes
Format settings, ReFrames: 4 frames
Muxing mode: Header stripping
Codec ID: V_MPEG4/ISO/AVC
Duration: 1h 49mn
Bit rate: 822 Kbps
Width: 704 pixels
Height: 384 pixels
Display aspect ratio: 16:9
Frame rate: 23.976 fps
Color space: YUV
Chroma subsampling: 4:2:0
Bit depth: 8 bits
Scan type: Progressive
Bits/(Pixel*Frame): 0.127
Stream size: 630 MiB (85%)
Writing library: x264 core 115 r1937 aa21558
Encoding settings: cabac=1 / ref=2 / deblock=1:-1:-1 / analyse=0x3:0x113 / me=hex / subme=6 / psy=1 / psy_rd=1.00:0.20 / mixed_ref=1 / me_range=16 / chroma_me=1 / trellis=1 / 8x8dct=1 / cqm=0 / deadzone=21,11 / fast_pskip=1 / chroma_qp_offset=-3 / threads=3 / sliced_threads=0 / nr=0 / decimate=0 / interlaced=0 / bluray_compat=0 / constrained_intra=0 / bframes=3 / b_pyramid=2 / b_adapt=1 / b_bias=0 / direct=1 / weightb=1 / open_gop=0 / weightp=1 / keyint=250 / keyint_min=23 / scenecut=40 / intra_refresh=0 / rc_lookahead=30 / rc=2pass / mbtree=1 / bitrate=822 / ratetol=1.0 / qcomp=0.60 / qpmin=0 / qpmax=69 / qpstep=4 / cplxblur=20.0 / qblur=0.5 / ip_ratio=1.40 / aq=1:1.00

Audio
ID: 2
Format: AC-3
Format/Info: Audio Coding 3
Mode extension: CM (complete main)
Muxing mode: Header stripping
Codec ID: A_AC3
Duration: 1h 49mn
Bit rate mode: Constant
Bit rate: 128 Kbps
Channel(s): 2 channels
Channel positions: Front: L R
Sampling rate: 48.0 KHz
Bit depth: 16 bits
Compression mode: Lossy
Stream size: 100 MiB (13%)










Поделиться:




реклама партнёра


Вернуться к началу
 Профиль Отправить личное сообщение  
 
   Похожие торренты   Автор   Торрент   Размер 
В этой теме нет новых непрочитанных сообщений. Самый жестокий год / A Most Violent Year (Джей Си Чендор) [боевик, триллер, драма, криминал, 2014] HDRip, dvo

Dracon

92 | 4

1.35 ГБ

В этой теме нет новых непрочитанных сообщений. Самый жестокий год / A Most Violent Year (Джей Си Чендор) [боевик, триллер, драма, криминал, 2014] BDRip 720p, dvo+sub

Dracon

74 | 7

5.21 ГБ

В этой теме нет новых непрочитанных сообщений. Самый жестокий год / A Most Violent Year (Джей Си Чендор) [боевик, триллер, драма, криминал, 2014] BDRip 720p, dvo

Dracon

90 | 15

2.86 ГБ

В этой теме нет новых непрочитанных сообщений. Самый жестокий год / A Most Violent Year (Джей Си Чендор) [2014, Драма, боевик, триллер, криминал, WEB-DLRip 720p] Sub

Nickolas3435

419 | 21

1.89 ГБ

В этой теме нет новых непрочитанных сообщений. Самый жестокий год / A Most Violent Year (Джей Си Чендор) [боевик, триллер, драма, криминал, 2014] BDRip 1080p, dvo+avo+sub

Dracon

2 | 2

11.9 ГБ

В этой теме нет новых непрочитанных сообщений. Бэтмен: Нападение на Аркхэм / Batman: Assault on Arkham (Джей Олива) [2014, мультфильм, боевик, триллер, криминал, BDRip 720p]

Nickolas3435

189 | 8

4.32 ГБ

В этой теме нет новых непрочитанных сообщений. Четвертый протокол / The Fourth Protocol [триллер, 1987] DVDRip, Mvo

salma3

108 | 4

2.18 ГБ


Начать новую тему Ответить на тему  [ 1 сообщение ] 




Для Мосгорсуда, Роскомнадзора и рекламодателей:: mosgorsud-torrent[собачка]yandex.ru