Торрент файл
скачать торрент магнет ссылка Добавлен: 22 янв 2012, 14:57
Размер: 2.18 ГБ
Сидеров: 152
Личеров: 12
Автор

СообщениеДобавлено: 22 янв 2012, 14:57 

Не в сети
Супермодератор
Аватара пользователя
Дата регистрации:
11 апр 2010, 18:10
Спасибо: 5914 / 7
Сообщения: 56776
Исходный код / Source Code

Перевод: Профессиональный (полное дублирование)
Cубтитры: Русские, Английские
Формат: HDRip-AVC , MKV, H.264, AC3
Страна: США, Франция
Режиссер: Дункан Джонс
Жанр: фантастика, боевик, триллер
Продолжительность: 01:33:12
Год выпуска: 2011

В ролях: Джейк Джилленхол, Мишель Монахэн, Вера Фармига, Джеффри Райт, Майкл Арден, Кэс Анвар

Описание: Герой фильма — солдат, который оказывается в теле некоего человека, и вынужден постоянно переживать чудовищный взрыв поезда, пока не поймёт, кто его устроил.



Видео: 960x540, 23.976 fps, AVC, High@L4.1, 2584 kbps, 0.28 bit/pixel
Аудио #1:Русский 48 kHz, AC3 Dolby Digital, 3/2 (L,C,R,l,r) + LFE ch, ~384.00 kbps avg [Профессиональный (полное дублирование)]
Аудио #2:Английский 48 kHz, AC3 Dolby Digital, 3/2 (L,C,R,l,r) + LFE ch, ~384.00 kbps avg [Оригинал]

Релиз от:

Автор:Vaippp

General
Unique ID: 213750053400512810166890178878600226904 (0xA0CEC349DD768FFD9A2C6511F69DA85
Complete name: C:\Users\\Documents\Downloads\ishodnij_kod_[tfile.ru].mkv
Format: Matroska
Format version: Version 2
File size: 2.18 GiB
Duration: 1h 33mn
Overall bit rate: 3 352 Kbps
Movie name: Ishodnyi Kod / 2011 / Release by Vaippp / HQ-ViDEO
Encoded date: UTC 2011-07-29 12:44:04
Writing application: mkvmerge v4.9.1 ('Ich will') сборка от Jul 11 2011 23:53:15
Writing library: libebml v1.2.1 + libmatroska v1.1.1

Video
ID: 1
Format: AVC
Format/Info: Advanced Video Codec
Format profile: High@L4.1
Format settings, CABAC: Yes
Format settings, ReFrames: 8 frames
Codec ID: V_MPEG4/ISO/AVC
Duration: 1h 33mn
Bit rate: 2 584 Kbps
Width: 960 pixels
Height: 540 pixels
Display aspect ratio: 16:9
Frame rate: 23.976 fps
Color space: YUV
Chroma subsampling: 4:2:0
Bit depth: 8 bits
Scan type: Progressive
Bits/(Pixel*Frame): 0.208
Stream size: 1.64 GiB (75%)
Title: BDRip 18/07/2011
Writing library: x264 core 115 r1995 c1e60b9
Encoding settings: cabac=1 / ref=8 / deblock=1:-2:-1 / analyse=0x3:0x133 / me=umh / subme=10 / psy=1 / psy_rd=1.05:0.15 / mixed_ref=1 / me_range=32 / chroma_me=1 / trellis=2 / 8x8dct=1 / cqm=0 / deadzone=21,11 / fast_pskip=0 / chroma_qp_offset=-3 / threads=12 / sliced_threads=0 / nr=0 / decimate=0 / interlaced=0 / bluray_compat=0 / constrained_intra=0 / bframes=8 / b_pyramid=2 / b_adapt=2 / b_bias=0 / direct=3 / weightb=1 / open_gop=0 / weightp=2 / keyint=250 / keyint_min=23 / scenecut=40 / intra_refresh=0 / rc_lookahead=60 / rc=2pass / mbtree=1 / bitrate=2584 / ratetol=1.0 / qcomp=0.65 / qpmin=1 / qpmax=63 / qpstep=4 / cplxblur=20.0 / qblur=0.5 / vbv_maxrate=50000 / vbv_bufsize=62500 / nal_hrd=none / ip_ratio=1.40 / aq=2:0.85 / zones=124647,134087,q=35
Language: English

Audio #1
ID: 2
Format: AC-3
Format/Info: Audio Coding 3
Mode extension: CM (complete main)
Codec ID: A_AC3
Duration: 1h 33mn
Bit rate mode: Constant
Bit rate: 384 Kbps
Channel(s): 6 channels
Channel positions: Front: L C R, Side: L R, LFE
Sampling rate: 48.0 KHz
Bit depth: 16 bits
Compression mode: Lossy
Stream size: 256 MiB (11%)
Title: DUB | NTV+
Language: Russian

Audio #2
ID: 3
Format: AC-3
Format/Info: Audio Coding 3
Mode extension: CM (complete main)
Codec ID: A_AC3
Duration: 1h 33mn
Bit rate mode: Constant
Bit rate: 384 Kbps
Channel(s): 6 channels
Channel positions: Front: L C R, Side: L R, LFE
Sampling rate: 48.0 KHz
Bit depth: 16 bits
Compression mode: Lossy
Stream size: 256 MiB (11%)
Title: Original
Language: English

Text #1
ID: 4
Format: UTF-8
Codec ID: S_TEXT/UTF8
Codec ID/Info: UTF-8 Plain Text
Language: Russian

Text #2
ID: 5
Format: UTF-8
Codec ID: S_TEXT/UTF8
Codec ID/Info: UTF-8 Plain Text
Language: English

Menu
00:00:00.000: en:00:00:00.000
00:06:52.871: en:00:06:52.871
00:11:03.663: en:00:11:03.663
00:17:20.039: en:00:17:20.039
00:21:06.557: en:00:21:06.557
00:28:36.798: en:00:28:36.798
00:31:50.367: en:00:31:50.367
00:36:19.886: en:00:36:19.886
00:41:35.743: en:00:41:35.743
00:47:21.839: en:00:47:21.839
00:52:30.189: en:00:52:30.189
00:54:32.102: en:00:54:32.102
00:58:01.228: en:00:58:01.228
01:03:02.320: en:01:03:02.320
01:09:39.550: en:01:09:39.550
01:15:12.049: en:01:15:12.049
01:21:49.655: en:01:21:49.655
01:24:41.118: en:01:24:41.118













Поделиться:




реклама партнёра


Вернуться к началу
 Профиль Отправить личное сообщение  
 
   Похожие торренты   Автор   Торрент   Размер 
В этой теме нет новых непрочитанных сообщений. Варкрафт / Warcraft (Дункан Джонс) [2016, Фэнтези, боевик, приключения , WEB-DLRip-AVC 1080p] [DD5.1] [Dub Rus ]

Враг Нароода

101 | 11

4.57 ГБ

В этой теме нет новых непрочитанных сообщений. Варкрафт / Warcraft (Дункан Джонс) [фэнтези, боевик, приключения, 2016] BDRip 1080p, Dub [лицензия]

salma3

499 | 44

8.62 ГБ

В этой теме нет новых непрочитанных сообщений. ЦРУ: Операция «Алекса» / CIA Code Name: Alexa [Боевик, триллер, 1992] HDRip, Mvo+Avo

salma3

52 | 1

1.47 ГБ

В этой теме нет новых непрочитанных сообщений. Код 8 / Code 8 (короткометражка, фантастика, боевик, криминал, 2016) WEB-DLRip-AVC | L2

marya111

635 | 37

231.68 МБ

В этой теме нет новых непрочитанных сообщений. Код «Омега» / The Omega Code [фантастика, фэнтези, боевик, 1999] DVDRip, Mvo

salma3

118 | 39

1.46 ГБ

В этой теме нет новых непрочитанных сообщений. Всё могу / Absolutely Anything (Терри Джонс) [фантастика, комедия, 2015] HDRip, dub [Чистый звук]

Dracon

550 | 5

1.37 ГБ

В этой теме нет новых непрочитанных сообщений. Код «Омега» / The Omega Code [боевик, триллер, драма, 1999] DVDRip, Mvo+Sub

salma3

14 | 3

1.46 ГБ


Начать новую тему Ответить на тему  [ 1 сообщение ] 




Для Мосгорсуда, Роскомнадзора и рекламодателей:: mosgorsud-torrent[собачка]yandex.ru