Торрент файл
скачать торрент магнет ссылка Добавлен: 22 янв 2012, 14:56
Размер: 742.57 МБ
Сидеров: 49
Личеров: 8
Автор

СообщениеДобавлено: 22 янв 2012, 14:56 

Не в сети
Супермодератор
Аватара пользователя
Дата регистрации:
11 апр 2010, 18:10
Спасибо: 5803 / 7
Сообщения: 56779
Тень / The Shadow


Перевод: Профессиональный (многоголосый, закадровый), cубтитры: отсутствуют
Формат: LowHDRip, AVI, XviD, MP3
Страна: США
Режиссер: Рассел Малкэй
Жанр: фэнтези, боевик, триллер, криминал, детектив, приключения
Продолжительность: 01:47:25
Год выпуска: 1994
В ролях: Алек Болдуин, Джон Лоун, Пенелопа Энн Миллер, Питер Бойл, Иэн МакКеллен, Тим Карри, Джонатан Уинтерс, Саб Симоно, Андре Грегори, Брэди Цурутани, Джеймс Хонг, Арсенио Тринидад, Джозеф Maэp

Описание: После пребывания в буддийском монастыре, бывший беспощадный правитель огромной наркоимперии, а ныне добропорядочный гражданин, скрыв лицо под маской, борется со злом в самом страшном городе мира — Нью-Йорке. Но вот у него появляется соперник не менее могущественный чем он сам — потомок Чингисхана, стремящийся подчинить себе весь мир…



Видео: 624x336 (1.86:1), 23.976 fps, XviD build 64 ~829 kbps avg, 0.17 bit/pixel
Аудио: 48 kHz, MPEG Layer 3, 2 ch, ~128.00 kbps avg




Общее
Полное имя: E:\Ten.1994.XviD.HDRip.MVO.avi
Формат: AVI
Формат/Информация: Audio Video Interleave
Размер файла: 743 Мбайт
Продолжительность: 1 ч. 47 м.
Общий поток: 966 Кбит/сек
Название фильма: Ten.1994.XviD.HDRip.MVO
Жанр: Adventure/Fantasy
Программа кодирования: VirtualDubMod 1.5.10.3 | www.virtualdub-fr.org || (build 2550/release)
Формат оригинала/Имя: Movie
Правообладатель: Rip by AMAPAHT
Примечание: RuTracker & All Films

Видео
Идентификатор: 0
Формат: MPEG-4 Visual
Профиль формата: Advanced Simple@L5
Параметр BVOP формата: 1
Параметр QPel формата: Нет
Параметр GMC формата: Без точки перехода
Параметр матрицы формата: Выборочная
Идентификатор кодека: XVID
Идентификатор кодека/Подсказка: XviD
Продолжительность: 1 ч. 47 м.
Битрейт: 829 Кбит/сек
Ширина: 624 пикс.
Высота: 336 пикс.
Соотношение сторон: 1,857
Частота кадров: 23,976 кадр/сек
Цветовое пространство: YUV
Подвыборка цветности: 4:2:0
Битовая глубина: 8 бит
Тип развёртки: Прогрессивная
Метод сжатия: С потерями
Бит/(Пиксели*Кадры): 0.165
Размер потока: 637 Мбайт (86%)
Библиотека кодирования: XviD 64

Аудио
Идентификатор: 1
Формат: MPEG Audio
Версия формата: Version 1
Профиль формата: Layer 3
Идентификатор кодека: 55
Идентификатор кодека/Подсказка: MP3
Продолжительность: 1 ч. 47 м.
Вид битрейта: Постоянный
Битрейт: 128 Кбит/сек
Канал(ы): 2 канала(ов)
Частота: 48,0 КГц
Метод сжатия: С потерями
Размер потока: 98,3 Мбайт (13%)
Выравнивание: Соединение по промежуткам
Продолжительность промежутка: 42мс. (1,00 видеокадр)
Время предзагрузки промежутка: 504 ms
Библиотека кодирования: LAME3.98r
Настройки программы: -m s -V 4 -q 0 -lowpass 17 -b 128





Поделиться:




реклама партнёра


Вернуться к началу
 Профиль Отправить личное сообщение  
 
   Похожие торренты   Автор   Торрент   Размер 
В этой теме нет новых непрочитанных сообщений. Тень / The Shadow [боевик, фэнтези, приключения, 1994] HDRip, Mvo

salma3

0 | 2

1.46 ГБ

В этой теме нет новых непрочитанных сообщений. Тень / The Shadow [Фэнтези, боевик, триллер, 1994] BDRip 1080р, Mvo

salma3

168 | 46

11.64 ГБ

В этой теме нет новых непрочитанных сообщений. Приятный на вид / Eye Candy (Нэйтан Хоуп, Марта Митчелл, Рассел Малкэй) [2015, триллер, драма, криминал, детектив, HDTVRip | Alternative Production]

Nickolas3435

41 | 9

5.43 ГБ

В этой теме нет новых непрочитанных сообщений. Привлекательная / Приятный на вид / Eye Candy [01x01-09] (Рассел Малкэй) [2015, триллер, драма, криминал, HDTVRip]

Nickolas3435

22 | 19

2.45 ГБ

В этой теме нет новых непрочитанных сообщений. Сага: Тень Кабала / SAGA - Curse of the Shadow [Фэнтези, боевик, 2013] BDRip 720p, Mvo

Dracon

120 | 2

3.31 ГБ

В этой теме нет новых непрочитанных сообщений. Сага: Тень Кабала / SAGA - Curse of the Shadow [Фэнтези, боевик, 2013] BDRip 1080p, Mvo

Dracon

85 | 13

8.75 ГБ

В этой теме нет новых непрочитанных сообщений. Фантом / Тень / Shadow [боевик, драма, криминал, 2013] HDRip, Mvo [Red Media]

salma3

13 | 2

1.46 ГБ


Начать новую тему Ответить на тему  [ 1 сообщение ] 




Для Мосгорсуда, Роскомнадзора и рекламодателей:: mosgorsud-torrent[собачка]yandex.ru