Торрент файл
скачать торрент магнет ссылка Добавлен: 22 янв 2012, 14:55
Размер: 2.13 ГБ
Сидеров: 70
Личеров: 9
Автор

СообщениеДобавлено: 22 янв 2012, 14:55 

Не в сети
Супермодератор
Аватара пользователя
Дата регистрации:
11 апр 2010, 18:10
Спасибо: 5801 / 7
Сообщения: 56779
Пол: Секретный материальчик / Paul


«Кто готов к тесному контакту?»

Перевод: Профессиональный (полное дублирование)
Субтитры:отсутствуют
Формат: HDRip-AVC, MKV, H.264, AC3

Страна: США, Великобритания
Режиссер: Грег Моттола
Жанр: фантастика, комедия, приключения

Продолжительность: 01:43:40
Год выпуска: 2011

В ролях: Саймон Пегг, Ник Фрост, Сет Роген, Джейн Линч, Сигурни Уивер, Джейсон Бейтман, Кристен Уиг, Билл Хэйдер, Блайт Даннер, Джефри Тэмбор

Описание: Два английских гика отправляются на одно из самых значимых фанатских событий в области фантастики — конвент ComicCon в Америке. По пути, неподалёку от известной Зоны 51, они встречают сбежавшего инопланетянина по имени Пол, который просит помочь ему добраться домой. Пытаясь спастись от правительственных агентов, герои случайно похищают женщину и натыкаются на обкуренную свидетельницу аварийной посадки Пола на Землю.







Видео: 720 x 304 (2.35:1), 23.976 fps, AVC(х264) High@L4.1, ~ 2 169 Kbps, 0.41 bit/pixel
Аудио #1: Русский: 48 kHz, АС3, 6 ch, ~384 kbps avg [полное дублирование]
Аудио #2: Английский: 48 kHz, АС3, 6 ch, ~384 kbps avg [оригинал]

Рип от:TswetkOFF
Релиз-Группа:






General
Unique ID: 192539158310052390350688264652694911397 (0x90D9B16B7079814A947F74C53DCE79A5)
Complete name: D:\Films\pol_[tfile.ru].mkv
Format: Matroska
File size: 2.13 GiB
Duration: 1h 43mn
Overall bit rate: 2 938 Kbps
Encoded date: UTC 2011-08-06 12:26:20
Writing application: mkvmerge v4.6.0 ('Still Crazy After All These Years') сборка от Apr1 2011 21:01:49
Writing library: libebml v1.2.0 + libmatroska v1.1.0

Video
ID: 1
Format: AVC
Format/Info: Advanced Video Codec
Format profile: High@L5.1
Format settings, CABAC: Yes
Format settings, ReFrames: 4 frames
Format settings, GOP: M=4, N=16
Muxing mode: Header stripping
Codec ID: V_MPEG4/ISO/AVC
Duration: 1h 43mn
Bit rate: 2 169 Kbps
Width: 720 pixels
Height: 304 pixels
Display aspect ratio: 2.35:1
Frame rate: 23.976 fps
Color space: YUV
Chroma subsampling: 4:2:0
Bit depth: 8 bits
Scan type: Progressive
Bits/(Pixel*Frame): 0.413
Stream size: 1.53 GiB (72%)
Writing library: x264 core 115 r1937 aa21558
Encoding settings: cabac=1 / ref=3 / deblock=1:-1:-1 / analyse=0x3:0x113 / me=hex / subme=7 / psy=1 / psy_rd=1.00:0.20 / mixed_ref=1 / me_range=16 / chroma_me=1 / trellis=1 / 8x8dct=1 / cqm=0 / deadzone=21,11 / fast_pskip=1 / chroma_qp_offset=-3 / threads=3 / sliced_threads=0 / nr=0 / decimate=0 / interlaced=0 / bluray_compat=0 / constrained_intra=0 / bframes=3 / b_pyramid=2 / b_adapt=1 / b_bias=0 / direct=1 / weightb=1 / open_gop=0 / weightp=2 / keyint=250 / keyint_min=23 / scenecut=40 / intra_refresh=0 / rc_lookahead=40 / rc=2pass / mbtree=1 / bitrate=2169 / ratetol=1.0 / qcomp=0.60 / qpmin=0 / qpmax=69 / qpstep=4 / cplxblur=20.0 / qblur=0.5 / ip_ratio=1.40 / aq=1:1.00

Audio #1
ID: 2
Format: AC-3
Format/Info: Audio Coding 3
Mode extension: CM (complete main)
Muxing mode: Header stripping
Codec ID: A_AC3
Duration: 1h 43mn
Bit rate mode: Constant
Bit rate: 384 Kbps
Channel(s): 6 channels
Channel positions: Front: L C R, Side: L R, LFE
Sampling rate: 48.0 KHz
Bit depth: 16 bits
Compression mode: Lossy
Stream size: 285 MiB (13%)

Audio #2
ID: 3
Format: AC-3
Format/Info: Audio Coding 3
Mode extension: CM (complete main)
Muxing mode: Header stripping
Codec ID: A_AC3
Duration: 1h 43mn
Bit rate mode: Constant
Bit rate: 384 Kbps
Channel(s): 6 channels
Channel positions: Front: L C R, Side: L R, LFE
Sampling rate: 48.0 KHz
Bit depth: 16 bits
Compression mode: Lossy
Stream size: 285 MiB (13%)















Поделиться:




реклама партнёра


Вернуться к началу
 Профиль Отправить личное сообщение  
 
   Похожие торренты   Автор   Торрент   Размер 
В этой теме нет новых непрочитанных сообщений. Анаклет: Секретный агент / Anacleto: Agente secreto [Боевик, комедия, 2015] HDRip, dvo

Dracon

489 | 10

1.37 ГБ

В этой теме нет новых непрочитанных сообщений. Секретный бункер / Ravager [Фантастика, ужасы, 1997] DVDRip, Mvo+Dvo

salma3

43 | 5

1.46 ГБ

В этой теме нет новых непрочитанных сообщений. Невидимая сестра / Invisible Sister (Пол Хоэн / Paul Hoen) [2015г., фэнтези, комедия, приключения, HDTV Rip] sub

Alfredovich

0 | 0

575.82 МБ

В этой теме нет новых непрочитанных сообщений. Толстяк против всех / Paul Blart: Mall Cop 2 (Энди Фикмен) [Боевик, Комедия, 2015] HDRip, Mvo [iTunes]

Dracon

12 | 1

1.45 ГБ

В этой теме нет новых непрочитанных сообщений. Толстяк против всех / Paul Blart: Mall Cop 2 (Энди Фикмен) [Боевик, Комедия, 2015] HDRip, Mvo [iTunes]

Dracon

7 | 0

744.77 МБ

В этой теме нет новых непрочитанных сообщений. Мумия / The Mummy [приключения, фантастика, комедия, 1999] HDRip, MVO [Петербургский дубляж]

melua3

0 | 1

2.05 ГБ

В этой теме нет новых непрочитанных сообщений. Уличный боец / Street Fighter [фантастика, боевик, комедия, приключения, 1994] HDRip, Avo

salma3

22 | 4

1.46 ГБ


Начать новую тему Ответить на тему  [ 1 сообщение ] 




Для Мосгорсуда, Роскомнадзора и рекламодателей:: mosgorsud-torrent[собачка]yandex.ru